  0
SECTION
  2
HEADER
  9
$ACADVER
  1
AC1015
  9
$ACADMAINTVER
 70
    20
  9
$DWGCODEPAGE
  3
ANSI_1252
  9
$INSBASE
 10
0.0
 20
0.0
 30
0.0
  9
$EXTMIN
 10
507.8942007692185
 20
655.534521081087
 30
-0.0000000000013642
  9
$EXTMAX
 10
3743.433715170655
 20
3131.839846929371
 30
272.3935238165574
  9
$LIMMIN
 10
0.0
 20
0.0
  9
$LIMMAX
 10
420.0
 20
297.0
  9
$ORTHOMODE
 70
     0
  9
$REGENMODE
 70
     1
  9
$FILLMODE
 70
     1
  9
$QTEXTMODE
 70
     0
  9
$MIRRTEXT
 70
     1
  9
$LTSCALE
 40
1.0
  9
$ATTMODE
 70
     1
  9
$TEXTSIZE
 40
2.5
  9
$TRACEWID
 40
1.0
  9
$TEXTSTYLE
  7
STANDARD
  9
$CLAYER
  8
0
  9
$CELTYPE
  6
ByLayer
  9
$CECOLOR
 62
   256
  9
$CELTSCALE
 40
1.0
  9
$DISPSILH
 70
     0
  9
$DIMSCALE
 40
1.0
  9
$DIMASZ
 40
2.5
  9
$DIMEXO
 40
1.0
  9
$DIMDLI
 40
10.0
  9
$DIMRND
 40
0.0
  9
$DIMDLE
 40
0.0
  9
$DIMEXE
 40
1.0
  9
$DIMTP
 40
0.1
  9
$DIMTM
 40
0.1
  9
$DIMTXT
 40
3.5
  9
$DIMCEN
 40
0.0
  9
$DIMTSZ
 40
0.0
  9
$DIMTOL
 70
     0
  9
$DIMLIM
 70
     0
  9
$DIMTIH
 70
     0
  9
$DIMTOH
 70
     0
  9
$DIMSE1
 70
     0
  9
$DIMSE2
 70
     0
  9
$DIMTAD
 70
     1
  9
$DIMZIN
 70
     8
  9
$DIMBLK
  1

  9
$DIMASO
 70
     1
  9
$DIMSHO
 70
     1
  9
$DIMPOST
  1

  9
$DIMAPOST
  1
"
  9
$DIMALT
 70
     0
  9
$DIMALTD
 70
     2
  9
$DIMALTF
 40
0.0393701
  9
$DIMLFAC
 40
1.0
  9
$DIMTOFL
 70
     1
  9
$DIMTVP
 40
0.0
  9
$DIMTIX
 70
     0
  9
$DIMSOXD
 70
     0
  9
$DIMSAH
 70
     0
  9
$DIMBLK1
  1

  9
$DIMBLK2
  1

  9
$DIMSTYLE
  2
AM_ISO
  9
$DIMCLRD
 70
   256
  9
$DIMCLRE
 70
   256
  9
$DIMCLRT
 70
     2
  9
$DIMTFAC
 40
0.71
  9
$DIMGAP
 40
1.5
  9
$DIMJUST
 70
     0
  9
$DIMSD1
 70
     0
  9
$DIMSD2
 70
     0
  9
$DIMTOLJ
 70
     0
  9
$DIMTZIN
 70
     8
  9
$DIMALTZ
 70
     0
  9
$DIMALTTZ
 70
     0
  9
$DIMUPT
 70
     0
  9
$DIMDEC
 70
     2
  9
$DIMTDEC
 70
     3
  9
$DIMALTU
 70
     2
  9
$DIMALTTD
 70
     4
  9
$DIMTXSTY
  7
STANDARD
  9
$DIMAUNIT
 70
     0
  9
$DIMADEC
 70
     0
  9
$DIMALTRND
 40
0.0
  9
$DIMAZIN
 70
     2
  9
$DIMDSEP
 70
    46
  9
$DIMATFIT
 70
     3
  9
$DIMFRAC
 70
     0
  9
$DIMLDRBLK
  1

  9
$DIMLUNIT
 70
     2
  9
$DIMLWD
 70
    -1
  9
$DIMLWE
 70
    -1
  9
$DIMTMOVE
 70
     0
  9
$LUNITS
 70
     2
  9
$LUPREC
 70
     2
  9
$SKETCHINC
 40
1.0
  9
$FILLETRAD
 40
2.5
  9
$AUNITS
 70
     0
  9
$AUPREC
 70
     0
  9
$MENU
  1
.
  9
$ELEVATION
 40
0.0
  9
$PELEVATION
 40
0.0
  9
$THICKNESS
 40
0.0
  9
$LIMCHECK
 70
     0
  9
$CHAMFERA
 40
2.5
  9
$CHAMFERB
 40
2.5
  9
$CHAMFERC
 40
20.0
  9
$CHAMFERD
 40
0.0
  9
$SKPOLY
 70
     0
  9
$TDCREATE
 40
2453615.364941401
  9
$TDUCREATE
 40
2453615.281608067
  9
$TDUPDATE
 40
2453616.558406482
  9
$TDUUPDATE
 40
2453616.475073148
  9
$TDINDWG
 40
0.0065011921
  9
$TDUSRTIMER
 40
0.0065011921
  9
$USRTIMER
 70
     1
  9
$ANGBASE
 50
0.0
  9
$ANGDIR
 70
     0
  9
$PDMODE
 70
     0
  9
$PDSIZE
 40
0.0
  9
$PLINEWID
 40
0.0
  9
$SPLFRAME
 70
     0
  9
$SPLINETYPE
 70
     6
  9
$SPLINESEGS
 70
     8
  9
$HANDSEED
  5
81E
  9
$SURFTAB1
 70
     6
  9
$SURFTAB2
 70
     6
  9
$SURFTYPE
 70
     6
  9
$SURFU
 70
     6
  9
$SURFV
 70
     6
  9
$UCSBASE
  2

  9
$UCSNAME
  2

  9
$UCSORG
 10
0.0
 20
0.0
 30
0.0
  9
$UCSXDIR
 10
1.0
 20
0.0
 30
0.0
  9
$UCSYDIR
 10
0.0
 20
1.0
 30
0.0
  9
$UCSORTHOREF
  2

  9
$UCSORTHOVIEW
 70
     0
  9
$UCSORGTOP
 10
0.0
 20
0.0
 30
0.0
  9
$UCSORGBOTTOM
 10
0.0
 20
0.0
 30
0.0
  9
$UCSORGLEFT
 10
0.0
 20
0.0
 30
0.0
  9
$UCSORGRIGHT
 10
0.0
 20
0.0
 30
0.0
  9
$UCSORGFRONT
 10
0.0
 20
0.0
 30
0.0
  9
$UCSORGBACK
 10
0.0
 20
0.0
 30
0.0
  9
$PUCSBASE
  2

  9
$PUCSNAME
  2

  9
$PUCSORG
 10
0.0
 20
0.0
 30
0.0
  9
$PUCSXDIR
 10
1.0
 20
0.0
 30
0.0
  9
$PUCSYDIR
 10
0.0
 20
1.0
 30
0.0
  9
$PUCSORTHOREF
  2

  9
$PUCSORTHOVIEW
 70
     0
  9
$PUCSORGTOP
 10
0.0
 20
0.0
 30
0.0
  9
$PUCSORGBOTTOM
 10
0.0
 20
0.0
 30
0.0
  9
$PUCSORGLEFT
 10
0.0
 20
0.0
 30
0.0
  9
$PUCSORGRIGHT
 10
0.0
 20
0.0
 30
0.0
  9
$PUCSORGFRONT
 10
0.0
 20
0.0
 30
0.0
  9
$PUCSORGBACK
 10
0.0
 20
0.0
 30
0.0
  9
$USERI1
 70
     0
  9
$USERI2
 70
     0
  9
$USERI3
 70
     0
  9
$USERI4
 70
     0
  9
$USERI5
 70
     0
  9
$USERR1
 40
0.0
  9
$USERR2
 40
0.0
  9
$USERR3
 40
0.0
  9
$USERR4
 40
0.0
  9
$USERR5
 40
0.0
  9
$WORLDVIEW
 70
     1
  9
$SHADEDGE
 70
     3
  9
$SHADEDIF
 70
    70
  9
$TILEMODE
 70
     1
  9
$MAXACTVP
 70
    64
  9
$PINSBASE
 10
0.0
 20
0.0
 30
0.0
  9
$PLIMCHECK
 70
     0
  9
$PEXTMIN
 10
1.000000000000000E+20
 20
1.000000000000000E+20
 30
1.000000000000000E+20
  9
$PEXTMAX
 10
-1.000000000000000E+20
 20
-1.000000000000000E+20
 30
-1.000000000000000E+20
  9
$PLIMMIN
 10
0.0
 20
0.0
  9
$PLIMMAX
 10
420.0
 20
297.0
  9
$UNITMODE
 70
     0
  9
$VISRETAIN
 70
     1
  9
$PLINEGEN
 70
     0
  9
$PSLTSCALE
 70
     1
  9
$TREEDEPTH
 70
  3020
  9
$CMLSTYLE
  2
Standard
  9
$CMLJUST
 70
     0
  9
$CMLSCALE
 40
20.0
  9
$PROXYGRAPHICS
 70
     1
  9
$MEASUREMENT
 70
     1
  9
$CELWEIGHT
370
    -1
  9
$ENDCAPS
280
     0
  9
$JOINSTYLE
280
     0
  9
$LWDISPLAY
290
     0
  9
$INSUNITS
 70
     4
  9
$HYPERLINKBASE
  1

  9
$STYLESHEET
  1

  9
$XEDIT
290
     1
  9
$CEPSNTYPE
380
     0
  9
$PSTYLEMODE
290
     1
  9
$FINGERPRINTGUID
  2
{3F802031-3338-4AD5-A600-42EAC64BAB2F}
  9
$VERSIONGUID
  2
{47255643-2FEB-4B21-8760-F1AA4355909E}
  9
$EXTNAMES
290
     1
  9
$PSVPSCALE
 40
0.0
  9
$OLESTARTUP
290
     0
  0
ENDSEC
  0
SECTION
  2
CLASSES
  0
CLASS
  1
ACDBDICTIONARYWDFLT
  2
AcDbDictionaryWithDefault
  3
ObjectDBX Classes
 90
        0
280
     0
281
     0
  0
CLASS
  1
ACDBPLACEHOLDER
  2
AcDbPlaceHolder
  3
ObjectDBX Classes
 90
        0
280
     0
281
     0
  0
CLASS
  1
LAYOUT
  2
AcDbLayout
  3
ObjectDBX Classes
 90
        0
280
     0
281
     0
  0
CLASS
  1
ACME_DOCUMENT
  2
AcMeDbDoc
  3
AcMeServices
 90
        0
280
     0
281
     0
  0
CLASS
  1
AMGSETTINGSOBJ
  2
AmgSettingsObj
  3
"AcadM|Product Description: AutoCAD Mechanical 2000|Company: Autodesk"
 90
        0
280
     0
281
     0
  0
CLASS
  1
ACMESCOPE
  2
AcMeScope
  3
AcMeServices
 90
        0
280
     0
281
     0
  0
CLASS
  1
ACMECOMMANDHISTORY
  2
AcMeCommandHistory
  3
AcMeServices
 90
        0
280
     0
281
     0
  0
CLASS
  1
ACIMSYSVARMAN
  2
AcImSysVarManager
  3
AcMeServices
 90
        0
280
     0
281
     0
  0
CLASS
  1
ACIMREALSYSVAR
  2
AcImRealSysVar
  3
AcMeServices
 90
        0
280
     0
281
     0
  0
CLASS
  1
ACIMINTSYSVAR
  2
AcImIntSysVar
  3
AcMeServices
 90
        0
280
     0
281
     0
  0
CLASS
  1
ACMEDRAWINGMAN
  2
AcMeDrawingMan
  3
AcMeServices
 90
        0
280
     0
281
     0
  0
CLASS
  1
ACMEVIEW
  2
AcMeView
  3
AcMeServices
 90
        0
280
     0
281
     0
  0
CLASS
  1
ACDBENTITYCACHE
  2
AcMeEntityCache
  3
AcMeServices
 90
        0
280
     0
281
     0
  0
CLASS
  1
GSMANAGER
  2
AcMeGSManager
  3
AcMeServices
 90
        0
280
     0
281
     0
  0
CLASS
  1
AMDTINTERNALREACTOR
  2
AmdtInternalReactor
  3
AcMeServices
 90
        0
280
     0
281
     0
  0
CLASS
  1
ACMESTATEMGR
  2
AcMeStateMgr
  3
AcMeServices
 90
        0
280
     0
281
     0
  0
CLASS
  1
ACGREFMASTER
  2
AcGrefMaster
  3
AcAttribServices
 90
        0
280
     0
281
     0
  0
CLASS
  1
ACME_DATABASE
  2
AcMeDbDatabase
  3
AcMeServices
 90
        0
280
     0
281
     0
  0
CLASS
  1
ACRFINSADJUSTERMGR
  2
AcRfInsAdjusterMgr
  3
AcMeServices
 90
        0
280
     0
281
     0
  0
CLASS
  1
ACGREFACADMASTER
  2
AcGrefacadMaster
  3
AcGrefServices
 90
        0
280
     0
281
     0
  0
CLASS
  1
AMIMASTER
  2
AmiMaster
  3
AmiServices
 90
        0
280
     0
281
     0
  0
CLASS
  1
ACMDATADICTIONARY
  2
AcmDataDictionary
  3
"AcmSymBB|Product Description: AutoCAD Mechanical 2004 DX|Company: Autodesk"
 90
        0
280
     0
281
     0
  0
CLASS
  1
ACMDATAENTRYBLOCK
  2
AcmDataEntryBlock
  3
"AcmSymBB|Product Description: AutoCAD Mechanical 2004 DX|Company: Autodesk"
 90
        0
280
     0
281
     0
  0
CLASS
  1
ACIMSTRSYSVAR
  2
AcImStrSysVar
  3
AcMeServices
 90
        0
280
     0
281
     0
  0
CLASS
  1
ACMSTANDARDISO
  2
AcmStandardISO
  3
"Amdt_StdImp|Product Description: AutoCAD Mechanical 2004 DX|Company: Autodesk"
 90
        0
280
     0
281
     0
  0
CLASS
  1
AMGOBJPROPCFG
  2
AmgObjPropCfg
  3
"AmgLay|Product Description: AutoCAD Mechanical 2000|Company: Autodesk"
 90
        1
280
     0
281
     0
  0
CLASS
  1
AMDTEDGESTANDARDISO
  2
AmdtEdgeStdISO
  3
"Amdt_StdImp|Product Description: AutoCAD Mechanical 2004 DX|Company: Autodesk"
 90
        0
280
     0
281
     0
  0
CLASS
  1
ACMSURFSTANDARDISO
  2
AcmSurfTextStdISO
  3
"Amdt_StdImp|Product Description: AutoCAD Mechanical 2004 DX|Company: Autodesk"
 90
        0
280
     0
281
     0
  0
CLASS
  1
ACMFCFSTANDARDISO
  2
AcmFCFStdISO
  3
"Amdt_StdImp|Product Description: AutoCAD Mechanical 2004 DX|Company: Autodesk"
 90
        0
280
     0
281
     0
  0
CLASS
  1
ACMWELDSTANDARDISO
  2
AcmWeldingStdISO
  3
"Amdt_StdImp|Product Description: AutoCAD Mechanical 2004 DX|Company: Autodesk"
 90
        0
280
     0
281
     0
  0
CLASS
  1
ACMIDSTANDARDISO
  2
AcmIdStdISO
  3
"Amdt_StdImp|Product Description: AutoCAD Mechanical 2004 DX|Company: Autodesk"
 90
        0
280
     0
281
     0
  0
CLASS
  1
ACMDATUMSTANDARDISO
  2
AcmDatumStdISO
  3
"Amdt_StdImp|Product Description: AutoCAD Mechanical 2004 DX|Company: Autodesk"
 90
        0
280
     0
281
     0
  0
CLASS
  1
ACMBOMSTANDARDISO
  2
AcmBOMStdISO
  3
"Amdt_StdImp|Product Description: AutoCAD Mechanical 2004 DX|Company: Autodesk"
 90
        0
280
     0
281
     0
  0
CLASS
  1
ACMDETAILSTANDARDISO
  2
AmdtDetailSymStdISO
  3
"Amdt_StdImp|Product Description: AutoCAD Mechanical 2004 DX|Company: Autodesk"
 90
        0
280
     0
281
     0
  0
CLASS
  1
ACMSECTIONSTANDARDISO
  2
AmdtSectionSymStdISO
  3
"Amdt_StdImp|Product Description: AutoCAD Mechanical 2004 DX|Company: Autodesk"
 90
        0
280
     0
281
     0
  0
CLASS
  1
ACMCENTERLINESTANDARDISO
  2
AmdtCenterLineStdISO
  3
"Amdt_StdImp|Product Description: AutoCAD Mechanical 2004 DX|Company: Autodesk"
 90
        0
280
     0
281
     0
  0
CLASS
  1
ACMNOTESTANDARDISO
  2
AmdtNoteStdISO
  3
"Amdt_StdImp|Product Description: AutoCAD Mechanical 2004 DX|Company: Autodesk"
 90
        0
280
     0
281
     0
  0
CLASS
  1
ACAMGLAYSTD
  2
AcAmgLayStd
  3
"AcAmgLayStd|Product Description: AutoCAD Mechanical 2000|Company: Autodesk"
 90
        0
280
     0
281
     0
  0
CLASS
  1
ACAMGDIMSTD
  2
AcAmgDimStd
  3
"AcAmgDimStd|Product Description: AutoCAD Mechanical 2000|Company: Autodesk"
 90
        0
280
     0
281
     0
  0
CLASS
  1
ACAMGHOLECHARTSTDISO
  2
AcAmgHoleChartStdISO
  3
ACMSYMBB_MODULE_NAME
 90
        0
280
     0
281
     0
  0
CLASS
  1
ACAMGTITLESTD
  2
AcAmgTitleStd
  3
"TITLEAPP"
 90
        0
280
     0
281
     0
  0
CLASS
  1
LAYER_INDEX
  2
AcDbLayerIndex
  3
ObjectDBX Classes
 90
    32768
280
     0
281
     0
  0
CLASS
  1
IDBUFFER
  2
AcDbIdBuffer
  3
ObjectDBX Classes
 90
    32768
280
     0
281
     0
  0
CLASS
  1
DICTIONARYVAR
  2
AcDbDictionaryVar
  3
ObjectDBX Classes
 90
        0
280
     0
281
     0
  0
CLASS
  1
AM_DRAWING_MGR
  2
AcDmDwgMgr
  3
AcMechDwgViewMgmt
 90
        0
280
     0
281
     0
  0
CLASS
  1
AM_DWG_DOCUMENT
  2
AcDmDwgDocument
  3
AcMechDwgViewMgmt
 90
        0
280
     0
281
     0
  0
CLASS
  1
AM_DWG_SHEET
  2
AcDmSheet
  3
AcMechDwgViewMgmt
 90
        0
280
     0
281
     0
  0
CLASS
  1
AM_VIEWDIMPARMAP
  2
AcDmViewDimParMap
  3
AcMechDwgViewMgmt
 90
        0
280
     0
281
     0
  0
CLASS
  1
AM_DWGMGR_NAME
  2
AcDmDwgMgrName
  3
AcMechDwgViewMgmt
 90
        0
280
     0
281
     0
  0
CLASS
  1
AMDTMENUSTATEMGR
  2
AmdtMenuStateMgr
  3
McadcomServices
 90
        0
280
     0
281
     0
  0
CLASS
  1
AMDTMCOMMENUSTATE
  2
AmdtMcomMenuState
  3
McadcomServices
 90
        0
280
     0
281
     0
  0
CLASS
  1
MAPIAMMOUDLE
  2
MApiAmModule
  3
MApiAmServices
 90
        0
280
     0
281
     0
  0
CLASS
  1
AMDTADMENUSTATE
  2
AmdtAdMenuState
  3
DesignerServices
 90
        0
280
     0
281
     0
  0
CLASS
  1
ADAPPL
  2
AcAdAppl
  3
DesignerServices
 90
        0
280
     0
281
     0
  0
CLASS
  1
DEPMGR
  2
AcAdDepMgr
  3
DesignerServices
 90
        0
280
     0
281
     0
  0
CLASS
  1
PARAMMGR
  2
AcAdParamMgr
  3
DesignerServices
 90
        0
280
     0
281
     0
  0
CLASS
  1
PARAMSCOPE
  2
AcAdParamScope
  3
DesignerServices
 90
        0
280
     0
281
     0
  0
CLASS
  1
NAMEDAPPL
  2
AcAdNamedAppl
  3
DesignerServices
 90
        0
280
     0
281
     0
  0
CLASS
  1
AMDTDMMENUSTATE
  2
AmdtDmMenuState
  3
AcMechDwgViewMgmt
 90
        0
280
     0
281
     0
  0
CLASS
  1
AMDTAMMENUSTATE
  2
AmdtAmMenuState
  3
DesignerAssemblies
 90
        0
280
     0
281
     0
  0
CLASS
  1
ACAMPROJECT
  2
AcAmProject
  3
DesignerAssemblies
 90
        0
280
     0
281
     0
  0
CLASS
  1
ACAMGRCOMPDEF
  2
AcAmGrCompDef
  3
DesignerAssemblies
 90
        0
280
     0
281
     0
  0
CLASS
  1
ACCMCONTEXT
  2
AcCmContext
  3
DesignerAssemblies
 90
        0
280
     0
281
     0
  0
CLASS
  1
ACAMCOMPDEF
  2
AcAmCompDef
  3
DesignerAssemblies
 90
        0
280
     0
281
     0
  0
CLASS
  1
ACAMCOMPDEFMGR
  2
AcAmCompDefMgr
  3
DesignerAssemblies
 90
        0
280
     0
281
     0
  0
CLASS
  1
AMCONTEXTMGR
  2
AcAmContextMgr
  3
DesignerAssemblies
 90
        0
280
     0
281
     0
  0
CLASS
  1
ACAMCONTEXTMODELER
  2
AcAmContextModeler
  3
DesignerAssemblies
 90
        0
280
     0
281
     0
  0
CLASS
  1
ACMTHREADLINESTANDARDISO
  2
AmdtThreadLineStdISO
  3
"Amdt_StdImp|Product Description: AutoCAD Mechanical 2004 DX|Company: Autodesk"
 90
        0
280
     0
281
     0
  0
CLASS
  1
CATALOGSTATE
  2
AcAmCatalogState
  3
DesignerAssemblies
 90
        0
280
     0
281
     0
  0
CLASS
  1
ACAMGRCOMPDEFSET
  2
AcAmGrCompDefSet
  3
DesignerAssemblies
 90
        0
280
     0
281
     0
  0
CLASS
  1
AMDTBROWSERDBTAB
  2
AmdtBrowserDbTab
  3
McadcomServices
 90
        0
280
     0
281
     0
  0
CLASS
  1
CBROWSERAPPOBJECT
  2
CBrowserAppObject
  3
McadcomServices
 90
        0
280
     0
281
     0
  0
CLASS
  1
DM_PLACEHOLDER
  2
AcDmSelsetPlaceholder
  3
AcMechDwgViewMgmt
 90
        0
280
     0
281
     0
  0
CLASS
  1
TABLESTYLE
  2
AcDbTableStyle
  3
ObjectDBX Classes
 90
     2047
280
     0
281
     0
  0
CLASS
  1
VAACXREFPANELOBJECT
  2
VaAcXREFPanelObject
  3
VAAC_ADDIN
 90
    32768
280
     0
281
     0
  0
CLASS
  1
VAACIMAGEINVENTORY
  2
VaAcImageInventory
  3
VAAC_ADDIN
 90
    32768
280
     0
281
     0
  0
CLASS
  1
AMDTNOTETEMPLATEDB
  2
AmdtNoteTemplateDB
  3
AMDT_STDIMP_MODULE_NAME
 90
        0
280
     0
281
     0
  0
CLASS
  1
EXACXREFPANELOBJECT
  2
ExAcXREFPanelObject
  3
EXAC_ESW
 90
        0
280
     0
281
     0
  0
CLASS
  1
ACMSTANDARDANSI
  2
AcmStandardANSI
  3
"Amdt_StdImp|Product Description: AutoCAD Mechanical 2004 DX|Company: Autodesk"
 90
        0
280
     0
281
     0
  0
CLASS
  1
ACMSURFSTANDARDANSI
  2
AcmSurfTextStdANSI
  3
"Amdt_StdImp|Product Description: AutoCAD Mechanical 2004 DX|Company: Autodesk"
 90
        0
280
     0
281
     0
  0
CLASS
  1
ACMFCFSTANDARDANSI
  2
AcmFCFStdANSI
  3
"Amdt_StdImp|Product Description: AutoCAD Mechanical 2004 DX|Company: Autodesk"
 90
        0
280
     0
281
     0
  0
CLASS
  1
ACMWELDSTANDARDANSI
  2
AcmWeldingStdANSI
  3
"Amdt_StdImp|Product Description: AutoCAD Mechanical 2004 DX|Company: Autodesk"
 90
        0
280
     0
281
     0
  0
CLASS
  1
ACMIDSTANDARDANSI
  2
AcmIdStdANSI
  3
"Amdt_StdImp|Product Description: AutoCAD Mechanical 2004 DX|Company: Autodesk"
 90
        0
280
     0
281
     0
  0
CLASS
  1
ACMDATUMSTANDARDANSI
  2
AcmDatumStdANSI
  3
"Amdt_StdImp|Product Description: AutoCAD Mechanical 2004 DX|Company: Autodesk"
 90
        0
280
     0
281
     0
  0
CLASS
  1
ACMBOMSTANDARDANSI
  2
AcmBOMStdANSI
  3
"Amdt_StdImp|Product Description: AutoCAD Mechanical 2004 DX|Company: Autodesk"
 90
        0
280
     0
281
     0
  0
CLASS
  1
ACMDETAILSTANDARDANSI
  2
AmdtDetailSymStdANSI
  3
"Amdt_StdImp|Product Description: AutoCAD Mechanical 2004 DX|Company: Autodesk"
 90
        0
280
     0
281
     0
  0
CLASS
  1
ACMSECTIONSTANDARDANSI
  2
AmdtSectionSymStdANSI
  3
"Amdt_StdImp|Product Description: AutoCAD Mechanical 2004 DX|Company: Autodesk"
 90
        0
280
     0
281
     0
  0
CLASS
  1
ACMCENTERLINESTANDARDANSI
  2
AmdtCenterLineStdANSI
  3
"Amdt_StdImp|Product Description: AutoCAD Mechanical 2004 DX|Company: Autodesk"
 90
        0
280
     0
281
     0
  0
CLASS
  1
ACMTHREADLINESTANDARDANSI
  2
AmdtThreadLineStdANSI
  3
"Amdt_StdImp|Product Description: AutoCAD Mechanical 2004 DX|Company: Autodesk"
 90
        0
280
     0
281
     0
  0
CLASS
  1
ACMNOTESTANDARDANSI
  2
AmdtNoteStdANSI
  3
"Amdt_StdImp|Product Description: AutoCAD Mechanical 2004 DX|Company: Autodesk"
 90
        0
280
     0
281
     0
  0
CLASS
  1
ACAMGHOLECHARTSTDANSI
  2
AcAmgHoleChartStdANSI
  3
ACMSYMBB_MODULE_NAME
 90
        0
280
     0
281
     0
  0
CLASS
  1
ACAMGFILTERDAT
  2
AcAmgFilterDat
  3
"AcadM|Product Description: AutoCAD Mechanical 2000|Company: Autodesk"
 90
        0
280
     0
281
     0
  0
ENDSEC
  0
SECTION
  2
TABLES
  0
TABLE
  2
VPORT
  5
8
330
0
100
AcDbSymbolTable
 70
     3
  0
VPORT
  5
815
330
8
100
AcDbSymbolTableRecord
100
AcDbViewportTableRecord
  2
*Active
 70
     0
 10
0.0
 20
0.0
 11
1.0
 21
1.0
 12
2542.362563481713
 22
1997.789567649826
 13
0.0
 23
0.0
 14
2.5
 24
2.5
 15
10.0
 25
10.0
 16
0.0
 26
0.0
 36
1.0
 17
0.0
 27
0.0
 37
0.0
 40
3261.660634173868
 41
1.629007633587786
 42
50.0
 43
0.0
 44
0.0
 50
0.0
 51
0.0
 71
     0
 72
   100
 73
     1
 74
     3
 75
     0
 76
     0
 77
     0
 78
     0
281
     0
 65
     1
110
0.0
120
0.0
130
0.0
111
1.0
121
0.0
131
0.0
112
0.0
122
1.0
132
0.0
 79
     0
146
0.0
  0
ENDTAB
  0
TABLE
  2
LTYPE
  5
5
330
0
100
AcDbSymbolTable
 70
    19
  0
LTYPE
  5
14
330
5
100
AcDbSymbolTableRecord
100
AcDbLinetypeTableRecord
  2
ByBlock
 70
     0
  3

 72
    65
 73
     0
 40
0.0
  0
LTYPE
  5
15
330
5
100
AcDbSymbolTableRecord
100
AcDbLinetypeTableRecord
  2
ByLayer
 70
     0
  3

 72
    65
 73
     0
 40
0.0
  0
LTYPE
  5
16
330
5
100
AcDbSymbolTableRecord
100
AcDbLinetypeTableRecord
  2
Continuous
 70
     0
  3
Solid line
 72
    65
 73
     0
 40
0.0
  0
LTYPE
  5
64
330
5
100
AcDbSymbolTableRecord
100
AcDbLinetypeTableRecord
  2
AM_ISO02W050
 70
     0
  3
__ __ __ __ __ __ __ __ __ __ __ __ __ __ __
 72
    65
 73
     2
 40
7.5
 49
6.0
 74
     0
 49
-1.5
 74
     0
  0
LTYPE
  5
65
330
5
100
AcDbSymbolTableRecord
100
AcDbLinetypeTableRecord
  2
AM_ISO08W050
 70
     0
  3
____ . ____ . ____ . ____ . ____ . ____ . ____
 72
    65
 73
     4
 40
18.0
 49
12.0
 74
     0
 49
-1.5
 74
     0
 49
3.0
 74
     0
 49
-1.5
 74
     0
  0
LTYPE
  5
66
330
5
100
AcDbSymbolTableRecord
100
AcDbLinetypeTableRecord
  2
AM_ISO09W050
 70
     0
  3
_____ . . _____ . . _____ . . ____ .. ____
 72
    65
 73
     6
 40
22.5
 49
12.0
 74
     0
 49
-1.5
 74
     0
 49
3.0
 74
     0
 49
-1.5
 74
     0
 49
3.0
 74
     0
 49
-1.5
 74
     0
  0
LTYPE
  5
67
330
5
100
AcDbSymbolTableRecord
100
AcDbLinetypeTableRecord
  2
Amconstr
 70
     0
  3
_______________________
 72
    65
 73
     2
 40
9999.0
 49
9999.0
 74
     0
 49
0.0
 74
     0
  0
LTYPE
  5
68
330
5
100
AcDbSymbolTableRecord
100
AcDbLinetypeTableRecord
  2
AM_ISO08W050x2
 70
     0
  3
__ . __ . __ . __ . __ . __
 72
    65
 73
     4
 40
9.0
 49
6.0
 74
     0
 49
-0.75
 74
     0
 49
1.5
 74
     0
 49
-0.75
 74
     0
  0
LTYPE
  5
69
330
5
100
AcDbSymbolTableRecord
100
AcDbLinetypeTableRecord
  2
AM_ISO02W050x2
 70
     0
  3
 _ _ _ _ _ _ _ _ _ _ _ _
 72
    65
 73
     2
 40
3.75
 49
3.0
 74
     0
 49
-0.75
 74
     0
  0
LTYPE
  5
6C
330
5
100
AcDbSymbolTableRecord
100
AcDbLinetypeTableRecord
  2
Amzigzag
 70
     0
  3
/\/-/\/-/\/-/\/-/\/-/\/
 72
    65
 73
     2
 40
11.0001
 49
0.0001
 74
     4
 75
   136
340
22C
 46
0.04
 50
0.0
 44
0.0
 45
0.0
 49
-11.0
 74
     0
  0
LTYPE
  5
7A
330
5
100
AcDbSymbolTableRecord
100
AcDbLinetypeTableRecord
  2
ACISOWELD
 70
     0
  3
_ _ _ _ _
 72
    65
 73
     2
 40
2.0
 49
2.0
 74
     0
 49
-1.0
 74
     0
  0
LTYPE
  5
7B
330
5
100
AcDbSymbolTableRecord
100
AcDbLinetypeTableRecord
  2
ACISOTGB
 70
     0
  3
__ . . __ . .
 72
    65
 73
     6
 40
9.0
 49
4.0
 74
     0
 49
-1.0
 74
     0
 49
1.0
 74
     0
 49
-1.0
 74
     0
 49
1.0
 74
     0
 49
-1.0
 74
     0
  0
LTYPE
  5
7C
330
5
100
AcDbSymbolTableRecord
100
AcDbLinetypeTableRecord
  2
ACISOTGL
 70
     0
  3
_ _ _ _ _
 72
    65
 73
     2
 40
3.0
 49
2.0
 74
     0
 49
-1.0
 74
     0
  0
LTYPE
  5
7E
330
5
100
AcDbSymbolTableRecord
100
AcDbLinetypeTableRecord
  2
CENTER
 70
     0
  3
__ . __
 72
    65
 73
     4
 40
7.0
 49
4.0
 74
     0
 49
-1.0
 74
     0
 49
1.0
 74
     0
 49
-1.0
 74
     0
  0
LTYPE
  5
D8
330
5
100
AcDbSymbolTableRecord
100
AcDbLinetypeTableRecord
  2
HIDDEN
 70
     0
  3
Hidden __ __ __ __ __ __ __ __ __ __ __ __ __ _
 72
    65
 73
     2
 40
9.524999999999998
 49
6.349999999999999
 74
     0
 49
-3.174999999999999
 74
     0
  0
LTYPE
  5
D9
330
5
100
AcDbSymbolTableRecord
100
AcDbLinetypeTableRecord
  2
PHANTOM2
 70
     0
  3
Phantom (.5x) ___ _ _ ___ _ _ ___ _ _ ___ _ _
 72
    65
 73
     6
 40
31.75
 49
15.875
 74
     0
 49
-3.174999999999999
 74
     0
 49
3.174999999999999
 74
     0
 49
-3.174999999999999
 74
     0
 49
3.174999999999999
 74
     0
 49
-3.174999999999999
 74
     0
  0
LTYPE
  5
31F
330
5
100
AcDbSymbolTableRecord
100
AcDbLinetypeTableRecord
  2
HIDDEN2
 70
     0
  3
Hidden (.5x) _ _ _ _ _ _ _ _ _ _ _ _ _ _ _ _ _
 72
    65
 73
     2
 40
0.1875
 49
0.125
 74
     0
 49
-0.0625
 74
     0
  0
LTYPE
  5
320
330
5
100
AcDbSymbolTableRecord
100
AcDbLinetypeTableRecord
  2
CENTER2
 70
     0
  3
Center (.5x) ___ _ ___ _ ___ _ ___ _ ___ _ ___
 72
    65
 73
     4
 40
1.125
 49
0.75
 74
     0
 49
-0.125
 74
     0
 49
0.125
 74
     0
 49
-0.125
 74
     0
  0
LTYPE
  5
321
330
5
100
AcDbSymbolTableRecord
100
AcDbLinetypeTableRecord
  2
Amzigzag2
 70
     0
  3
/\/-/\/-/\/-/\/-/\/-/\/
 72
    65
 73
     2
 40
0.4401
 49
0.0001
 74
     4
 75
   135
340
6B
 46
0.0016
 50
0.0
 44
0.0
 45
0.0
 49
-0.4400000000000001
 74
     0
  0
LTYPE
  5
322
330
5
100
AcDbSymbolTableRecord
100
AcDbLinetypeTableRecord
  2
ACANSTGB
 70
     0
  3
__ . . __ . .
 72
    65
 73
     6
 40
0.35433070866
 49
0.15748031496
 74
     0
 49
-0.03937007874
 74
     0
 49
0.03937007874
 74
     0
 49
-0.03937007874
 74
     0
 49
0.03937007874
 74
     0
 49
-0.03937007874
 74
     0
  0
LTYPE
  5
323
330
5
100
AcDbSymbolTableRecord
100
AcDbLinetypeTableRecord
  2
ACANSTGL
 70
     0
  3
_ _ _ _ _
 72
    65
 73
     2
 40
0.11811023622
 49
0.07874015748
 74
     0
 49
-0.03937007874
 74
     0
  0
ENDTAB
  0
TABLE
  2
LAYER
  5
2
330
0
100
AcDbSymbolTable
 70
     7
  0
LAYER
  5
10
330
2
100
AcDbSymbolTableRecord
100
AcDbLayerTableRecord
  2
0
 70
     0
 62
     7
  6
Continuous
370
    -3
390
F
  0
LAYER
  5
324
330
2
100
AcDbSymbolTableRecord
100
AcDbLayerTableRecord
  2
EMNE
 70
     0
 62
     7
  6
Continuous
370
    -3
390
F
  0
LAYER
  5
325
330
2
100
AcDbSymbolTableRecord
100
AcDbLayerTableRecord
  2
MIDT
 70
     0
 62
     1
  6
CENTER
370
    -3
390
F
  0
LAYER
  5
326
330
2
100
AcDbSymbolTableRecord
100
AcDbLayerTableRecord
  2
MAAL
 70
     0
 62
     4
  6
Continuous
370
    -3
390
F
  0
LAYER
  5
327
330
2
100
AcDbSymbolTableRecord
100
AcDbLayerTableRecord
  2
Defpoints
 70
     0
 62
     7
  6
Continuous
290
     0
370
    -3
390
F
  0
LAYER
  5
328
330
2
100
AcDbSymbolTableRecord
100
AcDbLayerTableRecord
  2
STIPLET
 70
     0
 62
     3
  6
HIDDEN
370
    -3
390
F
  0
LAYER
  5
329
330
2
100
AcDbSymbolTableRecord
100
AcDbLayerTableRecord
  2
AM_5
 70
     0
 62
     3
  6
Continuous
370
    25
390
F
  0
ENDTAB
  0
TABLE
  2
STYLE
  5
3
330
0
100
AcDbSymbolTable
 70
    11
  0
STYLE
  5
11
330
3
100
AcDbSymbolTableRecord
100
AcDbTextStyleTableRecord
  2
STANDARD
 70
     0
 40
0.0
 41
1.0
 50
0.0
 71
     0
 42
2.5
  3
ISOCP.SHX
  4

  0
STYLE
  5
6B
330
3
100
AcDbSymbolTableRecord
100
AcDbTextStyleTableRecord
  2

 70
     1
 40
0.0
 41
1.0
 50
0.0
 71
     0
 42
2.5
  3
ltypeshp.shx
  4

  0
STYLE
  5
6D
330
3
100
AcDbSymbolTableRecord
100
AcDbTextStyleTableRecord
  2
ACISOTS
 70
     0
 40
1.0
 41
1.0
 50
0.0
 71
     0
 42
2.5
  3
isocp.shx
  4

  0
STYLE
  5
79
330
3
100
AcDbSymbolTableRecord
100
AcDbTextStyleTableRecord
  2
ACISOGDT
 70
     0
 40
0.0
 41
1.0
 50
0.0
 71
     0
 42
2.5
  3
AMGDT
  4

  0
STYLE
  5
1ED
330
3
100
AcDbSymbolTableRecord
100
AcDbTextStyleTableRecord
  2
USER1
 70
     0
 40
0.0
 41
1.0
 50
0.0
 71
     0
 42
2.5
  3
TXT.SHX
  4

  0
STYLE
  5
1EE
330
3
100
AcDbSymbolTableRecord
100
AcDbTextStyleTableRecord
  2
USER2
 70
     0
 40
0.0
 41
1.0
 50
0.0
 71
     0
 42
2.5
  3
SIMPLEX.SHX
  4

  0
STYLE
  5
1EF
330
3
100
AcDbSymbolTableRecord
100
AcDbTextStyleTableRecord
  2
USER3
 70
     0
 40
0.0
 41
1.0
 50
0.0
 71
     0
 42
2.5
  3
ITALIC.SHX
  4

  0
STYLE
  5
22C
330
3
100
AcDbSymbolTableRecord
100
AcDbTextStyleTableRecord
  2

 70
     1
 40
0.0
 41
1.0
 50
0.0
 71
     0
 42
2.5
  3
genltshp.shx
  4

  0
STYLE
  5
32A
330
3
100
AcDbSymbolTableRecord
100
AcDbTextStyleTableRecord
  2
ROMANS
 70
     0
 40
0.0
 41
1.0
 50
0.0
 71
     0
 42
50.0
  3
romans
  4

  0
STYLE
  5
32B
330
3
100
AcDbSymbolTableRecord
100
AcDbTextStyleTableRecord
  2
ACANSTS
 70
     0
 40
1.0
 41
1.0
 50
0.0
 71
     0
 42
50.0
  3
romans.shx
  4

  0
STYLE
  5
32C
330
3
100
AcDbSymbolTableRecord
100
AcDbTextStyleTableRecord
  2
ACANSGDT
 70
     0
 40
0.0
 41
1.0
 50
0.0
 71
     0
 42
50.0
  3
amgdtans.shx
  4

  0
ENDTAB
  0
TABLE
  2
VIEW
  5
6
330
0
100
AcDbSymbolTable
 70
     0
  0
ENDTAB
  0
TABLE
  2
UCS
  5
7
330
0
100
AcDbSymbolTable
 70
     0
  0
ENDTAB
  0
TABLE
  2
APPID
  5
9
330
0
100
AcDbSymbolTable
 70
    11
  0
APPID
  5
12
330
9
100
AcDbSymbolTableRecord
100
AcDbRegAppTableRecord
  2
ACAD
 70
     0
  0
APPID
  5
46
330
9
100
AcDbSymbolTableRecord
100
AcDbRegAppTableRecord
  2
MCAD_NO_VIS
 70
     0
  0
APPID
  5
47
330
9
100
AcDbSymbolTableRecord
100
AcDbRegAppTableRecord
  2
ACAD_TEMP_GRAPHIC
 70
     0
  0
APPID
  5
58
330
9
100
AcDbSymbolTableRecord
100
AcDbRegAppTableRecord
  2
ACATTRIBSERVICES
 70
     0
  0
APPID
  5
EE
330
9
100
AcDbSymbolTableRecord
100
AcDbRegAppTableRecord
  2
AD_DRAW
 70
     0
  0
APPID
  5
10C
330
9
100
AcDbSymbolTableRecord
100
AcDbRegAppTableRecord
  2
DESIGNERASSEMBLIES
 70
     0
  0
APPID
  5
111
330
9
100
AcDbSymbolTableRecord
100
AcDbRegAppTableRecord
  2
ACADM_DIM_EDIT
 70
     0
  0
APPID
  5
112
330
9
100
AcDbSymbolTableRecord
100
AcDbRegAppTableRecord
  2
AMDT_DM_ADJ
 70
     0
  0
APPID
  5
1A3
330
9
100
AcDbSymbolTableRecord
100
AcDbRegAppTableRecord
  2
ACAD_DSTYLE_DIMARC_LENGTH_SYMBOL
 70
     0
  0
APPID
  5
1A4
330
9
100
AcDbSymbolTableRecord
100
AcDbRegAppTableRecord
  2
ACAD_DSTYLE_DIMJOGGED_JOGANGLE_SYMBOL
 70
     0
  0
APPID
  5
334
330
9
100
AcDbSymbolTableRecord
100
AcDbRegAppTableRecord
  2
GENIUS_GENDTOL_13
 70
     0
  0
ENDTAB
  0
TABLE
  2
DIMSTYLE
  5
A
330
0
100
AcDbSymbolTable
 70
    15
100
AcDbDimStyleTable
 71
     1
340
81
  0
DIMSTYLE
105
27
330
A
100
AcDbSymbolTableRecord
100
AcDbDimStyleTableRecord
  2
ISO-25
 70
     0
 41
2.5
 42
0.625
 43
3.75
 44
1.25
 73
     0
 74
     0
 77
     1
 78
     8
140
2.5
141
2.5
143
0.03937007874016
147
0.625
171
     3
172
     1
271
     2
272
     2
274
     3
278
    44
283
     0
284
     8
340
11
  0
DIMSTYLE
105
81
330
A
100
AcDbSymbolTableRecord
100
AcDbDimStyleTableRecord
  2
AM_ISO
 70
     0
  4
"
 41
2.5
 42
1.0
 43
10.0
 44
1.0
 47
0.1
 48
0.1
 73
     0
 74
     0
 77
     1
 78
     8
 79
     2
140
3.5
141
0.0
143
0.0393701
146
0.71
147
1.5
172
     1
176
   256
177
   256
178
     2
271
     2
272
     3
274
     4
283
     0
284
     8
340
11
371
    -1
372
    -1
1001
ACAD_DSTYLE_DIMARC_LENGTH_SYMBOL
1070
   379
1070
     1
1001
ACAD_DSTYLE_DIMJOGGED_JOGANGLE_SYMBOL
1070
   384
1040
0.7853981633974483
  0
DIMSTYLE
105
82
330
A
100
AcDbSymbolTableRecord
100
AcDbDimStyleTableRecord
  2
AM_ISO$3
 70
     0
  4
"
 41
2.5
 42
1.0
 43
10.0
 44
1.0
 47
0.1
 48
0.1
 73
     0
 77
     1
 78
     8
 79
     2
140
3.5
141
0.0
143
0.0393701
146
0.71
147
1.5
176
   256
177
   256
178
     2
271
     2
272
     3
274
     4
283
     0
284
     8
288
     1
289
     0
340
11
371
    -1
372
    -1
1001
ACAD_DSTYLE_DIMARC_LENGTH_SYMBOL
1070
   379
1070
     1
1001
ACAD_DSTYLE_DIMJOGGED_JOGANGLE_SYMBOL
1070
   384
1040
0.7853981633974483
  0
DIMSTYLE
105
83
330
A
100
AcDbSymbolTableRecord
100
AcDbDimStyleTableRecord
  2
AM_ISO$4
 70
     0
  4
"
 41
2.5
 42
1.0
 43
10.0
 44
1.0
 47
0.1
 48
0.1
 73
     0
 77
     1
 78
     8
 79
     2
140
3.5
141
0.0
143
0.0393701
146
0.71
147
1.5
176
   256
177
   256
178
     2
271
     2
272
     3
274
     4
283
     0
284
     8
288
     1
289
     0
340
11
371
    -1
372
    -1
1001
ACAD_DSTYLE_DIMARC_LENGTH_SYMBOL
1070
   379
1070
     1
1001
ACAD_DSTYLE_DIMJOGGED_JOGANGLE_SYMBOL
1070
   384
1040
0.7853981633974483
  0
DIMSTYLE
105
84
330
A
100
AcDbSymbolTableRecord
100
AcDbDimStyleTableRecord
  2
AM_ISO$6
 70
     0
  4
"
 41
2.5
 42
1.0
 43
10.0
 44
1.0
 47
0.1
 48
0.1
 73
     0
 74
     0
 78
     8
 79
     2
140
3.5
141
0.0
143
0.0393701
146
0.71
147
1.5
172
     1
176
   256
177
   256
178
     2
271
     2
272
     3
274
     4
283
     0
284
     8
340
11
371
    -1
372
    -1
1001
ACAD_DSTYLE_DIMARC_LENGTH_SYMBOL
1070
   379
1070
     1
1001
ACAD_DSTYLE_DIMJOGGED_JOGANGLE_SYMBOL
1070
   384
1040
0.7853981633974483
  0
DIMSTYLE
105
85
330
A
100
AcDbSymbolTableRecord
100
AcDbDimStyleTableRecord
  2
AM_ISO$7
 70
     0
  4
"
 41
2.5
 42
1.0
 43
10.0
 44
1.0
 47
0.1
 48
0.1
 73
     0
 74
     0
 77
     1
 78
     8
 79
     2
140
5.0
141
0.0
143
0.0393701
146
0.71
147
1.5
172
     1
176
   256
177
   256
178
     2
271
     2
272
     3
274
     4
283
     0
284
     8
340
11
371
    -1
372
    -1
1001
ACAD_DSTYLE_DIMARC_LENGTH_SYMBOL
1070
   379
1070
     1
1001
ACAD_DSTYLE_DIMJOGGED_JOGANGLE_SYMBOL
1070
   384
1040
0.7853981633974483
  0
DIMSTYLE
105
86
330
A
100
AcDbSymbolTableRecord
100
AcDbDimStyleTableRecord
  2
AM_ISO$SF
 70
     0
  4
"
 41
2.5
 42
1.0
 43
10.0
 44
1.0
 47
0.1
 48
0.1
 73
     0
 74
     0
 75
     1
 76
     1
 77
     1
 78
     8
 79
     2
140
3.5
141
0.0
143
0.0393701
146
0.71
147
1.5
172
     1
176
   256
177
   256
178
     2
271
     2
272
     3
274
     4
283
     0
284
     8
340
11
371
    -1
372
    -1
1001
ACAD_DSTYLE_DIMARC_LENGTH_SYMBOL
1070
   379
1070
     1
1001
ACAD_DSTYLE_DIMJOGGED_JOGANGLE_SYMBOL
1070
   384
1040
0.7853981633974483
  0
DIMSTYLE
105
8B
330
A
100
AcDbSymbolTableRecord
100
AcDbDimStyleTableRecord
  2
AM_ISO$SH
 70
     0
  4
"
 41
2.5
 42
1.0
 43
10.0
 44
1.0
 47
0.1
 48
0.1
 73
     0
 74
     0
 75
     1
 76
     1
 77
     1
 78
     8
 79
     2
140
3.5
141
0.0
143
0.0393701
144
2.0
146
0.71
147
1.5
172
     1
173
     1
176
   256
177
   256
178
     2
271
     2
272
     3
274
     4
283
     0
284
     8
340
11
343
87
371
    -1
372
    -1
1001
ACAD_DSTYLE_DIMARC_LENGTH_SYMBOL
1070
   379
1070
     1
1001
ACAD_DSTYLE_DIMJOGGED_JOGANGLE_SYMBOL
1070
   384
1040
0.7853981633974483
  0
DIMSTYLE
105
32D
102
{ACAD_REACTORS
330
5B0
330
613
330
615
330
63C
330
69A
330
69B
330
4FA
330
4FB
330
4FC
330
4FF
330
500
102
}
330
A
100
AcDbSymbolTableRecord
100
AcDbDimStyleTableRecord
  2
ROPOX
 70
     0
 40
10.0
 41
1.5
 42
2.0
 43
0.0
 44
2.0
 73
     0
 74
     0
 77
     1
 78
     8
140
3.5
141
0.0
147
1.5
172
     1
173
     1
176
     1
177
     1
178
     4
289
     1
340
32A
341
289
342
289
343
289
344
289
  0
DIMSTYLE
105
32E
330
A
100
AcDbSymbolTableRecord
100
AcDbDimStyleTableRecord
  2
AM_ANSI
 70
     0
  4
mm
 41
0.1
 42
0.05
 43
0.5
 44
0.1
 47
0.1
 48
0.1
 78
     7
 79
     2
140
0.12
141
0.0
146
0.71
147
0.06
176
   256
177
   256
178
     2
274
     4
284
     7
340
11
371
    -1
372
    -1
1001
ACAD_DSTYLE_DIMARC_LENGTH_SYMBOL
1070
   379
1070
     1
1001
ACAD_DSTYLE_DIMJOGGED_JOGANGLE_SYMBOL
1070
   384
1040
0.7853981633974483
  0
DIMSTYLE
105
32F
330
A
100
AcDbSymbolTableRecord
100
AcDbDimStyleTableRecord
  2
AM_ANSI$3
 70
     0
  4
mm
 41
0.1
 42
0.05
 43
0.5
 44
0.1
 47
0.1
 48
0.1
 78
     7
 79
     2
140
0.12
141
0.0
146
0.71
147
0.06
176
   256
177
   256
178
     2
274
     4
284
     7
288
     1
289
     0
340
11
371
    -1
372
    -1
1001
ACAD_DSTYLE_DIMARC_LENGTH_SYMBOL
1070
   379
1070
     1
1001
ACAD_DSTYLE_DIMJOGGED_JOGANGLE_SYMBOL
1070
   384
1040
0.7853981633974483
  0
DIMSTYLE
105
330
330
A
100
AcDbSymbolTableRecord
100
AcDbDimStyleTableRecord
  2
AM_ANSI$4
 70
     0
  4
mm
 41
0.1
 42
0.05
 43
0.5
 44
0.1
 47
0.1
 48
0.1
 78
     7
 79
     2
140
0.12
141
0.0
146
0.71
147
0.06
176
   256
177
   256
178
     2
274
     4
284
     7
288
     1
289
     0
340
11
371
    -1
372
    -1
1001
ACAD_DSTYLE_DIMARC_LENGTH_SYMBOL
1070
   379
1070
     1
1001
ACAD_DSTYLE_DIMJOGGED_JOGANGLE_SYMBOL
1070
   384
1040
0.7853981633974483
  0
DIMSTYLE
105
331
330
A
100
AcDbSymbolTableRecord
100
AcDbDimStyleTableRecord
  2
AM_ANSI$7
 70
     0
  4
mm
 41
0.1
 42
0.05
 43
0.5
 44
0.1
 47
0.1
 48
0.1
 78
     7
 79
     2
140
0.24
141
0.0
146
0.71
147
0.06
176
   256
177
   256
178
     2
274
     4
284
     7
340
11
371
    -1
372
    -1
1001
ACAD_DSTYLE_DIMARC_LENGTH_SYMBOL
1070
   379
1070
     1
1001
ACAD_DSTYLE_DIMJOGGED_JOGANGLE_SYMBOL
1070
   384
1040
0.7853981633974483
  0
DIMSTYLE
105
332
330
A
100
AcDbSymbolTableRecord
100
AcDbDimStyleTableRecord
  2
AM_ANSI$SF
 70
     0
  4
mm
 41
0.1
 42
0.05
 43
0.5
 44
0.1
 47
0.1
 48
0.1
 75
     1
 76
     1
 78
     7
 79
     2
140
0.12
141
0.0
146
0.71
147
0.06
176
   256
177
   256
178
     2
274
     4
284
     7
340
11
371
    -1
372
    -1
1001
ACAD_DSTYLE_DIMARC_LENGTH_SYMBOL
1070
   379
1070
     1
1001
ACAD_DSTYLE_DIMJOGGED_JOGANGLE_SYMBOL
1070
   384
1040
0.7853981633974483
  0
DIMSTYLE
105
333
330
A
100
AcDbSymbolTableRecord
100
AcDbDimStyleTableRecord
  2
AM_ANSI$SH
 70
     0
  4
mm
 41
0.1
 42
0.05
 43
0.5
 44
0.1
 47
0.1
 48
0.1
 75
     1
 76
     1
 78
     7
 79
     2
140
0.12
141
0.0
146
0.71
147
0.06
173
     1
176
   256
177
   256
178
     2
274
     4
284
     7
340
11
343
87
371
    -1
372
    -1
1001
ACAD_DSTYLE_DIMARC_LENGTH_SYMBOL
1070
   379
1070
     1
1001
ACAD_DSTYLE_DIMJOGGED_JOGANGLE_SYMBOL
1070
   384
1040
0.7853981633974483
  0
ENDTAB
  0
TABLE
  2
BLOCK_RECORD
  5
1
330
0
100
AcDbSymbolTable
 70
    27
  0
BLOCK_RECORD
  5
1F
102
{ACAD_XDICTIONARY
360
8F
102
}
330
1
100
AcDbSymbolTableRecord
100
AcDbBlockTableRecord
  2
*Model_Space
340
22
  0
BLOCK_RECORD
  5
1B
330
1
100
AcDbSymbolTableRecord
100
AcDbBlockTableRecord
  2
*Paper_Space
340
1E
  0
BLOCK_RECORD
  5
23
330
1
100
AcDbSymbolTableRecord
100
AcDbBlockTableRecord
  2
*Paper_Space0
340
26
  0
BLOCK_RECORD
  5
87
330
1
100
AcDbSymbolTableRecord
100
AcDbBlockTableRecord
  2
GENAXEH
340
0
  0
BLOCK_RECORD
  5
289
330
1
100
AcDbSymbolTableRecord
100
AcDbBlockTableRecord
  2
PILE1
340
0
102
{BLKREFS
331
2C4
331
2C5
331
2AC
331
2AD
331
2A0
331
2A1
331
2DC
331
2DD
331
318
331
319
331
2D0
331
2D1
331
2B8
331
2B9
331
300
331
301
331
2E8
331
2E9
331
2F4
331
2F5
331
30C
331
30D
331
787
331
788
331
793
331
794
331
79D
331
79E
331
7A7
331
7A8
331
7B1
331
7B2
331
7BB
331
7BC
331
7C5
331
7C6
331
7CF
331
7D0
331
7D9
331
7DA
331
7E3
331
7E4
331
7ED
331
7EE
102
}
  0
BLOCK_RECORD
  5
28F
330
1
100
AcDbSymbolTableRecord
100
AcDbBlockTableRecord
  2
*X4
340
0
102
{BLKREFS
331
28D
331
607
331
60A
331
67E
331
683
102
}
  0
BLOCK_RECORD
  5
69C
330
1
100
AcDbSymbolTableRecord
100
AcDbBlockTableRecord
  2
*D16
340
0
  0
BLOCK_RECORD
  5
6A6
330
1
100
AcDbSymbolTableRecord
100
AcDbBlockTableRecord
  2
*D17
340
0
  0
BLOCK_RECORD
  5
6B0
330
1
100
AcDbSymbolTableRecord
100
AcDbBlockTableRecord
  2
*D18
340
0
  0
BLOCK_RECORD
  5
6BA
330
1
100
AcDbSymbolTableRecord
100
AcDbBlockTableRecord
  2
*D19
340
0
  0
BLOCK_RECORD
  5
6C4
330
1
100
AcDbSymbolTableRecord
100
AcDbBlockTableRecord
  2
*D20
340
0
  0
BLOCK_RECORD
  5
6CE
330
1
100
AcDbSymbolTableRecord
100
AcDbBlockTableRecord
  2
*D21
340
0
  0
BLOCK_RECORD
  5
6D8
330
1
100
AcDbSymbolTableRecord
100
AcDbBlockTableRecord
  2
*D22
340
0
  0
BLOCK_RECORD
  5
6E2
330
1
100
AcDbSymbolTableRecord
100
AcDbBlockTableRecord
  2
*D23
340
0
  0
BLOCK_RECORD
  5
6EC
330
1
100
AcDbSymbolTableRecord
100
AcDbBlockTableRecord
  2
*D24
340
0
  0
BLOCK_RECORD
  5
6F6
330
1
100
AcDbSymbolTableRecord
100
AcDbBlockTableRecord
  2
*D25
340
0
  0
BLOCK_RECORD
  5
700
330
1
100
AcDbSymbolTableRecord
100
AcDbBlockTableRecord
  2
*D26
340
0
  0
ENDTAB
  0
ENDSEC
  0
SECTION
  2
BLOCKS
  0
BLOCK
  5
20
330
1F
100
AcDbEntity
  8
0
100
AcDbBlockBegin
  2
*Model_Space
 70
     0
 10
0.0
 20
0.0
 30
0.0
  3
*Model_Space
  1

  0
ENDBLK
  5
21
330
1F
100
AcDbEntity
  8
0
100
AcDbBlockEnd
  0
BLOCK
  5
1C
330
1B
100
AcDbEntity
 67
     1
  8
0
100
AcDbBlockBegin
  2
*Paper_Space
 70
     0
 10
0.0
 20
0.0
 30
0.0
  3
*Paper_Space
  1

  0
ENDBLK
  5
1D
330
1B
100
AcDbEntity
 67
     1
  8
0
100
AcDbBlockEnd
  0
BLOCK
  5
24
330
23
100
AcDbEntity
 67
     1
  8
0
100
AcDbBlockBegin
  2
*Paper_Space0
 70
     0
 10
0.0
 20
0.0
 30
0.0
  3
*Paper_Space0
  1

  0
ENDBLK
  5
25
330
23
100
AcDbEntity
 67
     1
  8
0
100
AcDbBlockEnd
  0
BLOCK
  5
89
330
87
100
AcDbEntity
  8
0
100
AcDbBlockBegin
  2
GENAXEH
 70
     0
 10
0.0
 20
0.0
 30
0.0
  3
GENAXEH
  1

  0
LINE
  5
88
330
87
100
AcDbEntity
  8
0
100
AcDbLine
 10
-1.0
 20
0.0
 30
0.0
 11
1.0
 21
0.0
 31
0.0
  0
ENDBLK
  5
8A
330
87
100
AcDbEntity
  8
0
100
AcDbBlockEnd
  0
BLOCK
  5
28A
330
289
100
AcDbEntity
  8
0
100
AcDbBlockBegin
  2
PILE1
 70
     0
 10
0.0
 20
0.0
 30
0.0
  3
PILE1
  1

  0
LINE
  5
28B
330
289
100
AcDbEntity
  8
MAAL
 62
     3
100
AcDbLine
 10
0.0
 20
0.0
 30
0.0
 11
-3.414931220634656
 21
-0.5691552034391237
 31
0.0
  0
LINE
  5
28C
330
289
100
AcDbEntity
  8
MAAL
 62
     3
100
AcDbLine
 10
0.0
 20
0.0
 30
0.0
 11
-3.414931220634656
 21
0.6033740670276302
 31
0.0
  0
INSERT
  5
28D
330
289
100
AcDbEntity
  8
MAAL
 62
     3
100
AcDbBlockReference
  2
*X4
 10
0.0
 20
0.0
 30
0.0
1001
ACAD
1000
HATCH
1002
{
1070
    16
1000
LINE
1040
1.0
1040
0.0
1002
}
  0
ENDBLK
  5
28E
330
289
100
AcDbEntity
  8
0
100
AcDbBlockEnd
  0
BLOCK
  5
290
330
28F
100
AcDbEntity
  8
0
100
AcDbBlockBegin
  2
*X4
 70
     1
 10
0.0
 20
0.0
 30
0.0
  3
*X4
  1

  0
LINE
  5
291
330
28F
100
AcDbEntity
  8
0
 62
     0
100
AcDbLine
 10
-3.414931220634656
 20
0.0
 30
0.0
 11
0.0
 21
0.0
 31
0.0
  0
LINE
  5
292
330
28F
100
AcDbEntity
  8
0
 62
     0
100
AcDbLine
 10
-3.414931220634656
 20
0.125
 30
0.0
 11
-0.7074656103172971
 21
0.125
 31
0.0
  0
LINE
  5
293
330
28F
100
AcDbEntity
  8
0
 62
     0
100
AcDbLine
 10
-3.414931220634656
 20
0.25
 30
0.0
 11
-1.414931220634594
 21
0.25
 31
0.0
  0
LINE
  5
294
330
28F
100
AcDbEntity
  8
0
 62
     0
100
AcDbLine
 10
-3.414931220634656
 20
0.375
 30
0.0
 11
-2.122396830951891
 21
0.375
 31
0.0
  0
LINE
  5
295
330
28F
100
AcDbEntity
  8
0
 62
     0
100
AcDbLine
 10
-3.414931220634656
 20
0.5
 30
0.0
 11
-2.829862441269188
 21
0.5
 31
0.0
  0
LINE
  5
296
330
28F
100
AcDbEntity
  8
0
 62
     0
100
AcDbLine
 10
-3.414931220634656
 20
-0.125
 30
0.0
 11
-0.7499999999999813
 21
-0.125
 31
0.0
  0
LINE
  5
297
330
28F
100
AcDbEntity
  8
0
 62
     0
100
AcDbLine
 10
-3.414931220634656
 20
-0.25
 30
0.0
 11
-1.499999999999962
 21
-0.25
 31
0.0
  0
LINE
  5
298
330
28F
100
AcDbEntity
  8
0
 62
     0
100
AcDbLine
 10
-3.414931220634656
 20
-0.375
 30
0.0
 11
-2.249999999999943
 21
-0.375
 31
0.0
  0
LINE
  5
299
330
28F
100
AcDbEntity
  8
0
 62
     0
100
AcDbLine
 10
-3.414931220634656
 20
-0.5
 30
0.0
 11
-2.999999999999925
 21
-0.5
 31
0.0
  0
ENDBLK
  5
29A
330
28F
100
AcDbEntity
  8
0
100
AcDbBlockEnd
  0
BLOCK
  5
76D
330
69C
100
AcDbEntity
  8
0
100
AcDbBlockBegin
  2
*D16
 70
     1
 10
0.0
 20
0.0
 30
0.0
  3
*D16
  1

  0
LINE
  5
784
330
69C
100
AcDbEntity
  8
MAAL
  6
Continuous
 62
     1
370
    -2
100
AcDbLine
 10
1086.482814101966
 20
2988.307743306659
 30
0.0
 11
1086.482814101966
 21
3101.839846929371
 31
0.0
  0
LINE
  5
785
330
69C
100
AcDbEntity
  8
MAAL
  6
Continuous
 62
     1
370
    -2
100
AcDbLine
 10
1796.482814101966
 20
2988.307743306663
 30
0.0
 11
1796.482814101966
 21
3101.839846929371
 31
0.0
  0
LINE
  5
786
330
69C
100
AcDbEntity
  8
MAAL
  6
Continuous
 62
     1
370
    -2
100
AcDbLine
 10
1101.482814101966
 20
3081.839846929371
 30
0.0
 11
1781.482814101966
 21
3081.839846929371
 31
0.0
  0
INSERT
  5
787
330
69C
100
AcDbEntity
  8
MAAL
  6
Continuous
 62
     1
370
    -2
100
AcDbBlockReference
  2
PILE1
 10
1086.482814101966
 20
3081.839846929371
 30
0.0
 41
15.0
 42
15.0
 43
15.0
 50
180.0
  0
INSERT
  5
788
330
69C
100
AcDbEntity
  8
MAAL
  6
Continuous
 62
     1
370
    -2
100
AcDbBlockReference
  2
PILE1
 10
1796.482814101966
 20
3081.839846929371
 30
0.0
 41
15.0
 42
15.0
 43
15.0
  0
MTEXT
  5
789
330
69C
100
AcDbEntity
  8
MAAL
  6
Continuous
 62
     4
100
AcDbMText
 10
1441.482814101966
 20
3114.339846929371
 30
0.0
 40
35.0
 41
0.0
 71
     5
 72
     1
  1
\A1;710
  7
ROMANS
 73
     1
 44
1.0
1001
ACAD
1000
MTEXTBEGIN
1070
    73
1070
     1
1070
    44
1040
1.0
1070
    74
1070
     0
1000
MTEXTEND
  0
POINT
  5
78A
330
69C
100
AcDbEntity
  8
Defpoints
  6
Continuous
 62
     0
100
AcDbPoint
 10
1086.482814101966
 20
2968.307743306659
 30
272.3935238164516
  0
POINT
  5
78B
330
69C
100
AcDbEntity
  8
Defpoints
  6
Continuous
 62
     0
100
AcDbPoint
 10
1796.482814101966
 20
2968.307743306663
 30
272.3935238164477
  0
POINT
  5
78C
330
69C
100
AcDbEntity
  8
Defpoints
  6
Continuous
 62
     0
100
AcDbPoint
 10
1796.482814101966
 20
3081.839846929371
 30
0.0
  0
ENDBLK
  5
76E
330
69C
100
AcDbEntity
  8
0
100
AcDbBlockEnd
  0
BLOCK
  5
76F
330
6A6
100
AcDbEntity
  8
0
100
AcDbBlockBegin
  2
*D17
 70
     1
 10
0.0
 20
0.0
 30
0.0
  3
*D17
  1

  0
LINE
  5
7AE
330
6A6
100
AcDbEntity
  8
MAAL
  6
Continuous
 62
     1
370
    -2
100
AcDbLine
 10
2807.608283638469
 20
1833.807743306695
 30
0.0
 11
2686.407481915436
 21
1833.807743306695
 31
0.0
  0
LINE
  5
7AF
330
6A6
100
AcDbEntity
  8
MAAL
  6
Continuous
 62
     1
370
    -2
100
AcDbLine
 10
2927.108283638469
 20
2830.807743306653
 30
0.0
 11
2686.407481915436
 21
2830.807743306653
 31
0.0
  0
LINE
  5
7B0
330
6A6
100
AcDbEntity
  8
MAAL
  6
Continuous
 62
     1
370
    -2
100
AcDbLine
 10
2706.407481915436
 20
1848.807743306695
 30
0.0
 11
2706.407481915436
 21
2815.807743306653
 31
0.0
  0
INSERT
  5
7B1
330
6A6
100
AcDbEntity
  8
MAAL
  6
Continuous
 62
     1
370
    -2
100
AcDbBlockReference
  2
PILE1
 10
2706.407481915436
 20
1833.807743306695
 30
0.0
 41
15.0
 42
15.0
 43
15.0
 50
270.0
  0
INSERT
  5
7B2
330
6A6
100
AcDbEntity
  8
MAAL
  6
Continuous
 62
     1
370
    -2
100
AcDbBlockReference
  2
PILE1
 10
2706.407481915436
 20
2830.807743306653
 30
0.0
 41
15.0
 42
15.0
 43
15.0
 50
90.0
  0
MTEXT
  5
7B3
330
6A6
100
AcDbEntity
  8
MAAL
  6
Continuous
 62
     4
100
AcDbMText
 10
2673.907481915435
 20
2332.307743306675
 30
0.0
 40
35.0
 41
0.0
 71
     5
 72
     1
  1
\A1;1000
  7
ROMANS
 11
0.0000000000000001
 21
1.0
 31
0.0
 73
     1
 44
1.0
1001
ACAD
1000
MTEXTBEGIN
1070
    73
1070
     1
1070
    44
1040
1.0
1070
    74
1070
     0
1000
MTEXTEND
  0
POINT
  5
7B4
330
6A6
100
AcDbEntity
  8
Defpoints
  6
Continuous
 62
     0
100
AcDbPoint
 10
2827.608283638469
 20
1833.807743306695
 30
272.3935238164262
  0
POINT
  5
7B5
330
6A6
100
AcDbEntity
  8
Defpoints
  6
Continuous
 62
     0
100
AcDbPoint
 10
2947.108283638469
 20
2830.807743306653
 30
272.3935238164426
  0
POINT
  5
7B6
330
6A6
100
AcDbEntity
  8
Defpoints
  6
Continuous
 62
     0
100
AcDbPoint
 10
2706.407481915436
 20
2830.807743306653
 30
0.0
  0
ENDBLK
  5
770
330
6A6
100
AcDbEntity
  8
0
100
AcDbBlockEnd
  0
BLOCK
  5
771
330
6B0
100
AcDbEntity
  8
0
100
AcDbBlockBegin
  2
*D18
 70
     1
 10
0.0
 20
0.0
 30
0.0
  3
*D18
  1

  0
LINE
  5
7A4
330
6B0
100
AcDbEntity
  8
MAAL
  6
Continuous
 62
     1
370
    -2
100
AcDbLine
 10
2807.608283638469
 20
2975.807743306665
 30
-0.0000000000006821
 11
2546.815578511449
 21
2975.807743306665
 31
-0.0000000000006821
  0
LINE
  5
7A5
330
6B0
100
AcDbEntity
  8
MAAL
  6
Continuous
 62
     1
370
    -2
100
AcDbLine
 10
2807.608283638469
 20
1833.807743306695
 30
-0.0000000000006821
 11
2546.815578511449
 21
1833.807743306696
 31
-0.0000000000006821
  0
LINE
  5
7A6
330
6B0
100
AcDbEntity
  8
MAAL
  6
Continuous
 62
     1
370
    -2
100
AcDbLine
 10
2566.815578511449
 20
2960.807743306665
 30
-0.0000000000006821
 11
2566.815578511449
 21
1848.807743306695
 31
-0.0000000000006821
  0
INSERT
  5
7A7
330
6B0
100
AcDbEntity
  8
MAAL
  6
Continuous
 62
     1
370
    -2
100
AcDbBlockReference
  2
PILE1
 10
2566.815578511449
 20
2975.807743306665
 30
-0.0000000000006821
 41
15.0
 42
15.0
 43
15.0
 50
90.0
  0
INSERT
  5
7A8
330
6B0
100
AcDbEntity
  8
MAAL
  6
Continuous
 62
     1
370
    -2
100
AcDbBlockReference
  2
PILE1
 10
2566.815578511449
 20
1833.807743306695
 30
-0.0000000000006821
 41
15.0
 42
15.0
 43
15.0
 50
270.0
  0
MTEXT
  5
7A9
330
6B0
100
AcDbEntity
  8
MAAL
  6
Continuous
 62
     4
100
AcDbMText
 10
2534.315578511449
 20
2408.307743306666
 30
-0.0000000000006821
 40
35.0
 41
0.0
 71
     5
 72
     1
  1
\A1;1140
  7
ROMANS
 11
0.0000000000000001
 21
1.0
 31
0.0
 73
     1
 44
1.0
1001
ACAD
1000
MTEXTBEGIN
1070
    73
1070
     1
1070
    44
1040
1.0
1070
    74
1070
     0
1000
MTEXTEND
  0
POINT
  5
7AA
330
6B0
100
AcDbEntity
  8
Defpoints
  6
Continuous
 62
     0
100
AcDbPoint
 10
2827.608283638469
 20
2975.807743306665
 30
272.3935238164426
  0
POINT
  5
7AB
330
6B0
100
AcDbEntity
  8
Defpoints
  6
Continuous
 62
     0
100
AcDbPoint
 10
2827.608283638469
 20
1833.807743306695
 30
272.3935238164448
  0
POINT
  5
7AC
330
6B0
100
AcDbEntity
  8
Defpoints
  6
Continuous
 62
     0
100
AcDbPoint
 10
2566.815578511449
 20
1833.807743306695
 30
-0.0000000000006821
  0
ENDBLK
  5
772
330
6B0
100
AcDbEntity
  8
0
100
AcDbBlockEnd
  0
BLOCK
  5
773
330
6BA
100
AcDbEntity
  8
0
100
AcDbBlockBegin
  2
*D19
 70
     1
 10
0.0
 20
0.0
 30
0.0
  3
*D19
  1

  0
LINE
  5
78E
330
6BA
100
AcDbEntity
  8
MAAL
  6
Continuous
 62
     1
370
    -2
100
AcDbLine
 10
2827.608283638469
 20
3087.219467191594
 30
-0.0000000000006821
 11
2827.608283638469
 21
3035.731221861408
 31
-0.0000000000006821
  0
LINE
  5
78F
330
6BA
100
AcDbEntity
  8
MAAL
  6
Continuous
 62
     1
370
    -2
100
AcDbLine
 10
2917.608283638472
 20
2988.307743306668
 30
-0.0000000000006821
 11
2917.608283638472
 21
3075.731221861409
 31
-0.0000000000006821
  0
LINE
  5
790
330
6BA
100
AcDbEntity
  8
MAAL
  6
Continuous
 62
     1
370
    -2
100
AcDbLine
 10
2812.608283638469
 20
3055.731221861408
 30
-0.0000000000006821
 11
2797.608283638469
 21
3055.731221861408
 31
-0.0000000000006821
  0
LINE
  5
791
330
6BA
100
AcDbEntity
  8
MAAL
  6
Continuous
 62
     1
370
    -2
100
AcDbLine
 10
2932.608283638472
 20
3055.731221861408
 30
-0.0000000000006821
 11
3062.608283638472
 21
3055.731221861408
 31
-0.0000000000006821
  0
LINE
  5
792
330
6BA
100
AcDbEntity
  8
MAAL
  6
Continuous
 62
     1
370
    -2
100
AcDbLine
 10
2827.608283638469
 20
3055.731221861408
 30
-0.0000000000006821
 11
2917.608283638472
 21
3055.731221861408
 31
-0.0000000000006821
  0
INSERT
  5
793
330
6BA
100
AcDbEntity
  8
MAAL
  6
Continuous
 62
     1
370
    -2
100
AcDbBlockReference
  2
PILE1
 10
2827.608283638469
 20
3055.731221861408
 30
-0.0000000000006821
 41
15.0
 42
15.0
 43
15.0
  0
INSERT
  5
794
330
6BA
100
AcDbEntity
  8
MAAL
  6
Continuous
 62
     1
370
    -2
100
AcDbBlockReference
  2
PILE1
 10
2917.608283638472
 20
3055.731221861408
 30
-0.0000000000006821
 41
15.0
 42
15.0
 43
15.0
 50
180.0
  0
MTEXT
  5
795
330
6BA
100
AcDbEntity
  8
MAAL
  6
Continuous
 62
     4
100
AcDbMText
 10
3005.108283638473
 20
3088.231221861409
 30
-0.0000000000006821
 40
35.0
 41
0.0
 71
     5
 72
     1
  1
\A1;100
  7
ROMANS
 73
     1
 44
1.0
1001
ACAD
1000
MTEXTBEGIN
1070
    73
1070
     1
1070
    44
1040
1.0
1070
    74
1070
     0
1000
MTEXTEND
  0
POINT
  5
796
330
6BA
100
AcDbEntity
  8
Defpoints
  6
Continuous
 62
     0
100
AcDbPoint
 10
2827.608283638469
 20
3107.219467191594
 30
272.393523816444
  0
POINT
  5
797
330
6BA
100
AcDbEntity
  8
Defpoints
  6
Continuous
 62
     0
100
AcDbPoint
 10
2917.608283638472
 20
2968.307743306668
 30
272.3935238164316
  0
POINT
  5
798
330
6BA
100
AcDbEntity
  8
Defpoints
  6
Continuous
 62
     0
100
AcDbPoint
 10
2917.608283638472
 20
3055.731221861408
 30
-0.0000000000006821
  0
ENDBLK
  5
774
330
6BA
100
AcDbEntity
  8
0
100
AcDbBlockEnd
  0
BLOCK
  5
775
330
6C4
100
AcDbEntity
  8
0
100
AcDbBlockBegin
  2
*D20
 70
     1
 10
0.0
 20
0.0
 30
0.0
  3
*D20
  1

  0
LINE
  5
7EA
330
6C4
100
AcDbEntity
  8
AM_5
 62
     1
370
    -2
100
AcDbLine
 10
741.4828141019389
 20
675.5345210811251
 30
0.0
 11
741.4828141019389
 21
902.1403678051338
 31
0.0
  0
LINE
  5
7EB
330
6C4
100
AcDbEntity
  8
AM_5
 62
     1
370
    -2
100
AcDbLine
 10
2141.482814101941
 20
675.5345210810869
 30
0.0
 11
2141.482814101941
 21
902.1403678051338
 31
0.0
  0
LINE
  5
7EC
330
6C4
100
AcDbEntity
  8
AM_5
 62
     1
370
    -2
100
AcDbLine
 10
756.4828141019388
 20
882.1403678051337
 30
0.0
 11
2126.482814101941
 21
882.1403678051337
 31
0.0
  0
INSERT
  5
7ED
330
6C4
100
AcDbEntity
  8
AM_5
 62
     1
370
    -2
100
AcDbBlockReference
  2
PILE1
 10
741.4828141019389
 20
882.1403678051337
 30
0.0
 41
15.0
 42
15.0
 43
15.0
 50
180.0
  0
INSERT
  5
7EE
330
6C4
100
AcDbEntity
  8
AM_5
 62
     1
370
    -2
100
AcDbBlockReference
  2
PILE1
 10
2141.482814101941
 20
882.1403678051337
 30
0.0
 41
15.0
 42
15.0
 43
15.0
  0
MTEXT
  5
7EF
330
6C4
100
AcDbEntity
  8
AM_5
 62
     4
100
AcDbMText
 10
1441.48281410194
 20
914.6403678051338
 30
0.0
 40
35.0
 41
0.0
 71
     5
 72
     1
  1
\A1;1400
  7
ROMANS
 73
     1
 44
1.0
1001
ACAD
1000
MTEXTBEGIN
1070
    73
1070
     1
1070
    44
1040
1.0
1070
    74
1070
     0
1000
MTEXTEND
  0
POINT
  5
7F0
330
6C4
100
AcDbEntity
  8
Defpoints
 62
     0
100
AcDbPoint
 10
741.4828141019389
 20
655.5345210811251
 30
0.0
  0
POINT
  5
7F1
330
6C4
100
AcDbEntity
  8
Defpoints
 62
     0
100
AcDbPoint
 10
2141.482814101941
 20
655.534521081087
 30
0.0
  0
POINT
  5
7F2
330
6C4
100
AcDbEntity
  8
Defpoints
 62
     0
100
AcDbPoint
 10
2141.482814101941
 20
882.1403678051337
 30
0.0
  0
ENDBLK
  5
776
330
6C4
100
AcDbEntity
  8
0
100
AcDbBlockEnd
  0
BLOCK
  5
777
330
6CE
100
AcDbEntity
  8
0
100
AcDbBlockBegin
  2
*D21
 70
     1
 10
0.0
 20
0.0
 30
0.0
  3
*D21
  1

  0
LINE
  5
7CC
330
6CE
100
AcDbEntity
  8
MAAL
  6
Continuous
 62
     1
370
    -2
100
AcDbLine
 10
2827.608283638469
 20
1813.807743306695
 30
0.0
 11
2827.608283638469
 21
1692.085109618595
 31
0.0
  0
LINE
  5
7CD
330
6CE
100
AcDbEntity
  8
MAAL
  6
Continuous
 62
     1
370
    -2
100
AcDbLine
 10
2967.108283638465
 20
1833.807743306656
 30
0.0
 11
2967.108283638465
 21
1692.085109618595
 31
0.0
  0
LINE
  5
7CE
330
6CE
100
AcDbEntity
  8
MAAL
  6
Continuous
 62
     1
370
    -2
100
AcDbLine
 10
2842.608283638469
 20
1712.085109618595
 30
0.0
 11
2952.108283638465
 21
1712.085109618595
 31
0.0
  0
INSERT
  5
7CF
330
6CE
100
AcDbEntity
  8
MAAL
  6
Continuous
 62
     1
370
    -2
100
AcDbBlockReference
  2
PILE1
 10
2827.608283638469
 20
1712.085109618595
 30
0.0
 41
15.0
 42
15.0
 43
15.0
 50
180.0
  0
INSERT
  5
7D0
330
6CE
100
AcDbEntity
  8
MAAL
  6
Continuous
 62
     1
370
    -2
100
AcDbBlockReference
  2
PILE1
 10
2967.108283638465
 20
1712.085109618595
 30
0.0
 41
15.0
 42
15.0
 43
15.0
  0
MTEXT
  5
7D1
330
6CE
100
AcDbEntity
  8
MAAL
  6
Continuous
 62
     4
100
AcDbMText
 10
2897.358283638467
 20
1744.585109618595
 30
0.0
 40
35.0
 41
0.0
 71
     5
 72
     1
  1
\A1;150
  7
ROMANS
 73
     1
 44
1.0
1001
ACAD
1000
MTEXTBEGIN
1070
    73
1070
     1
1070
    44
1040
1.0
1070
    74
1070
     0
1000
MTEXTEND
  0
POINT
  5
7D2
330
6CE
100
AcDbEntity
  8
Defpoints
  6
Continuous
 62
     0
100
AcDbPoint
 10
2827.608283638469
 20
1833.807743306695
 30
272.3935238164262
  0
POINT
  5
7D3
330
6CE
100
AcDbEntity
  8
Defpoints
  6
Continuous
 62
     0
100
AcDbPoint
 10
2967.108283638465
 20
1853.807743306656
 30
272.3935238164473
  0
POINT
  5
7D4
330
6CE
100
AcDbEntity
  8
Defpoints
  6
Continuous
 62
     0
100
AcDbPoint
 10
2967.108283638465
 20
1712.085109618595
 30
0.0
  0
ENDBLK
  5
778
330
6CE
100
AcDbEntity
  8
0
100
AcDbBlockEnd
  0
BLOCK
  5
779
330
6D8
100
AcDbEntity
  8
0
100
AcDbBlockBegin
  2
*D22
 70
     1
 10
0.0
 20
0.0
 30
0.0
  3
*D22
  1

  0
LINE
  5
7C2
330
6D8
100
AcDbEntity
  8
MAAL
  6
Continuous
 62
     1
370
    -2
100
AcDbLine
 10
1857.48281410197
 20
1952.807743307165
 30
0.0
 11
1857.48281410197
 21
1653.846403682666
 31
0.0
  0
LINE
  5
7C3
330
6D8
100
AcDbEntity
  8
MAAL
  6
Continuous
 62
     1
370
    -2
100
AcDbLine
 10
1025.482814101959
 20
1952.807743307162
 30
0.0
 11
1025.482814101959
 21
1653.846403682666
 31
0.0
  0
LINE
  5
7C4
330
6D8
100
AcDbEntity
  8
MAAL
  6
Continuous
 62
     1
370
    -2
100
AcDbLine
 10
1842.48281410197
 20
1673.846403682666
 30
0.0
 11
1040.482814101959
 21
1673.846403682666
 31
0.0
  0
INSERT
  5
7C5
330
6D8
100
AcDbEntity
  8
MAAL
  6
Continuous
 62
     1
370
    -2
100
AcDbBlockReference
  2
PILE1
 10
1857.48281410197
 20
1673.846403682666
 30
0.0
 41
15.0
 42
15.0
 43
15.0
  0
INSERT
  5
7C6
330
6D8
100
AcDbEntity
  8
MAAL
  6
Continuous
 62
     1
370
    -2
100
AcDbBlockReference
  2
PILE1
 10
1025.482814101959
 20
1673.846403682666
 30
0.0
 41
15.0
 42
15.0
 43
15.0
 50
180.0
  0
MTEXT
  5
7C7
330
6D8
100
AcDbEntity
  8
MAAL
  6
Continuous
 62
     4
100
AcDbMText
 10
1441.482814101964
 20
1706.346403682666
 30
0.0
 40
35.0
 41
0.0
 71
     5
 72
     1
  1
\A1;860
  7
ROMANS
 73
     1
 44
1.0
1001
ACAD
1000
MTEXTBEGIN
1070
    73
1070
     1
1070
    44
1040
1.0
1070
    74
1070
     0
1000
MTEXTEND
  0
POINT
  5
7C8
330
6D8
100
AcDbEntity
  8
Defpoints
  6
Continuous
 62
     0
100
AcDbPoint
 10
1857.48281410197
 20
1972.807743307165
 30
272.3935238164425
  0
POINT
  5
7C9
330
6D8
100
AcDbEntity
  8
Defpoints
  6
Continuous
 62
     0
100
AcDbPoint
 10
1025.482814101959
 20
1972.807743307162
 30
272.3935238164453
  0
POINT
  5
7CA
330
6D8
100
AcDbEntity
  8
Defpoints
  6
Continuous
 62
     0
100
AcDbPoint
 10
1025.482814101959
 20
1673.846403682666
 30
0.0
  0
ENDBLK
  5
77A
330
6D8
100
AcDbEntity
  8
0
100
AcDbBlockEnd
  0
BLOCK
  5
77B
330
6E2
100
AcDbEntity
  8
0
100
AcDbBlockBegin
  2
*D23
 70
     1
 10
0.0
 20
0.0
 30
0.0
  3
*D23
  1

  0
LINE
  5
79A
330
6E2
100
AcDbEntity
  8
MAAL
  6
Continuous
 62
     1
370
    -2
100
AcDbLine
 10
798.6643370809924
 20
1833.807743306673
 30
0.0
 11
537.8942007692188
 21
1833.807743306673
 31
0.0
  0
LINE
  5
79B
330
6E2
100
AcDbEntity
  8
MAAL
  6
Continuous
 62
     1
370
    -2
100
AcDbLine
 10
721.4828141019534
 20
2833.807743306673
 30
0.0
 11
537.8942007692191
 21
2833.807743306673
 31
0.0
  0
LINE
  5
79C
330
6E2
100
AcDbEntity
  8
MAAL
  6
Continuous
 62
     1
370
    -2
100
AcDbLine
 10
557.8942007692188
 20
1848.807743306673
 30
0.0
 11
557.894200769219
 21
2818.807743306673
 31
0.0
  0
INSERT
  5
79D
330
6E2
100
AcDbEntity
  8
MAAL
  6
Continuous
 62
     1
370
    -2
100
AcDbBlockReference
  2
PILE1
 10
557.8942007692188
 20
1833.807743306673
 30
0.0
 41
15.0
 42
15.0
 43
15.0
 50
270.0
  0
INSERT
  5
79E
330
6E2
100
AcDbEntity
  8
MAAL
  6
Continuous
 62
     1
370
    -2
100
AcDbBlockReference
  2
PILE1
 10
557.894200769219
 20
2833.807743306673
 30
0.0
 41
15.0
 42
15.0
 43
15.0
 50
90.0
  0
MTEXT
  5
79F
330
6E2
100
AcDbEntity
  8
MAAL
  6
Continuous
 62
     4
100
AcDbMText
 10
525.3942007692185
 20
2333.807743306673
 30
0.0
 40
35.0
 41
0.0
 71
     5
 72
     1
  1
\A1;1000
  7
ROMANS
 11
0.0000000000000001
 21
1.0
 31
0.0
 73
     1
 44
1.0
1001
ACAD
1000
MTEXTBEGIN
1070
    73
1070
     1
1070
    44
1040
1.0
1070
    74
1070
     0
1000
MTEXTEND
  0
POINT
  5
7A0
330
6E2
100
AcDbEntity
  8
Defpoints
  6
Continuous
 62
     0
100
AcDbPoint
 10
818.6643370809925
 20
1833.807743306673
 30
272.3935238164522
  0
POINT
  5
7A1
330
6E2
100
AcDbEntity
  8
Defpoints
  6
Continuous
 62
     0
100
AcDbPoint
 10
741.4828141019533
 20
2833.807743306673
 30
272.3935238164525
  0
POINT
  5
7A2
330
6E2
100
AcDbEntity
  8
Defpoints
  6
Continuous
 62
     0
100
AcDbPoint
 10
557.894200769219
 20
2833.807743306673
 30
0.0
  0
ENDBLK
  5
77C
330
6E2
100
AcDbEntity
  8
0
100
AcDbBlockEnd
  0
BLOCK
  5
77D
330
6EC
100
AcDbEntity
  8
0
100
AcDbBlockBegin
  2
*D24
 70
     1
 10
0.0
 20
0.0
 30
0.0
  3
*D24
  1

  0
LINE
  5
7B8
330
6EC
100
AcDbEntity
  8
MAAL
  6
Continuous
 62
     1
370
    -2
100
AcDbLine
 10
721.4828141019552
 20
2133.807743306673
 30
0.0
 11
639.2027151875063
 21
2133.807743306673
 31
0.0
  0
LINE
  5
7B9
330
6EC
100
AcDbEntity
  8
MAAL
  6
Continuous
 62
     1
370
    -2
100
AcDbLine
 10
798.6643370809924
 20
1833.807743306673
 30
0.0
 11
639.2027151875063
 21
1833.807743306673
 31
0.0
  0
LINE
  5
7BA
330
6EC
100
AcDbEntity
  8
MAAL
  6
Continuous
 62
     1
370
    -2
100
AcDbLine
 10
659.2027151875063
 20
2118.807743306673
 30
0.0
 11
659.2027151875063
 21
1848.807743306673
 31
0.0
  0
INSERT
  5
7BB
330
6EC
100
AcDbEntity
  8
MAAL
  6
Continuous
 62
     1
370
    -2
100
AcDbBlockReference
  2
PILE1
 10
659.2027151875063
 20
2133.807743306673
 30
0.0
 41
15.0
 42
15.0
 43
15.0
 50
90.0
  0
INSERT
  5
7BC
330
6EC
100
AcDbEntity
  8
MAAL
  6
Continuous
 62
     1
370
    -2
100
AcDbBlockReference
  2
PILE1
 10
659.2027151875063
 20
1833.807743306673
 30
0.0
 41
15.0
 42
15.0
 43
15.0
 50
270.0
  0
MTEXT
  5
7BD
330
6EC
100
AcDbEntity
  8
MAAL
  6
Continuous
 62
     4
100
AcDbMText
 10
626.7027151875059
 20
1983.807743306673
 30
0.0
 40
35.0
 41
0.0
 71
     5
 72
     1
  1
\A1;300
  7
ROMANS
 11
0.0000000000000001
 21
1.0
 31
0.0
 73
     1
 44
1.0
1001
ACAD
1000
MTEXTBEGIN
1070
    73
1070
     1
1070
    44
1040
1.0
1070
    74
1070
     0
1000
MTEXTEND
  0
POINT
  5
7BE
330
6EC
100
AcDbEntity
  8
Defpoints
  6
Continuous
 62
     0
100
AcDbPoint
 10
741.4828141019552
 20
2133.807743306673
 30
272.3935238164525
  0
POINT
  5
7BF
330
6EC
100
AcDbEntity
  8
Defpoints
  6
Continuous
 62
     0
100
AcDbPoint
 10
818.6643370809925
 20
1833.807743306673
 30
272.3935238164522
  0
POINT
  5
7C0
330
6EC
100
AcDbEntity
  8
Defpoints
  6
Continuous
 62
     0
100
AcDbPoint
 10
659.2027151875063
 20
1833.807743306673
 30
0.0
  0
ENDBLK
  5
77E
330
6EC
100
AcDbEntity
  8
0
100
AcDbBlockEnd
  0
BLOCK
  5
77F
330
6F6
100
AcDbEntity
  8
0
100
AcDbBlockBegin
  2
*D25
 70
     1
 10
0.0
 20
0.0
 30
0.0
  3
*D25
  1

  0
LINE
  5
7D6
330
6F6
100
AcDbEntity
  8
MAAL
  6
Continuous
 62
     1
370
    -2
100
AcDbLine
 10
798.6643370809924
 20
1531.034521081102
 30
0.0
 11
537.8942007692187
 21
1531.034521081102
 31
0.0
  0
LINE
  5
7D7
330
6F6
100
AcDbEntity
  8
MAAL
  6
Continuous
 62
     1
370
    -2
100
AcDbLine
 10
721.4828141019388
 20
655.5345210811251
 30
0.0
 11
537.8942007692185
 21
655.5345210811251
 31
0.0
  0
LINE
  5
7D8
330
6F6
100
AcDbEntity
  8
MAAL
  6
Continuous
 62
     1
370
    -2
100
AcDbLine
 10
557.8942007692187
 20
1516.034521081102
 30
0.0
 11
557.8942007692185
 21
670.5345210811251
 31
0.0
  0
INSERT
  5
7D9
330
6F6
100
AcDbEntity
  8
MAAL
  6
Continuous
 62
     1
370
    -2
100
AcDbBlockReference
  2
PILE1
 10
557.8942007692187
 20
1531.034521081102
 30
0.0
 41
15.0
 42
15.0
 43
15.0
 50
90.0
  0
INSERT
  5
7DA
330
6F6
100
AcDbEntity
  8
MAAL
  6
Continuous
 62
     1
370
    -2
100
AcDbBlockReference
  2
PILE1
 10
557.8942007692185
 20
655.5345210811251
 30
0.0
 41
15.0
 42
15.0
 43
15.0
 50
270.0
  0
MTEXT
  5
7DB
330
6F6
100
AcDbEntity
  8
MAAL
  6
Continuous
 62
     4
100
AcDbMText
 10
525.3942007692185
 20
1093.284521081113
 30
0.0
 40
35.0
 41
0.0
 71
     5
 72
     1
  1
\A1;890
  7
ROMANS
 11
0.0000000000000001
 21
1.0
 31
0.0
 73
     1
 44
1.0
1001
ACAD
1000
MTEXTBEGIN
1070
    73
1070
     1
1070
    44
1040
1.0
1070
    74
1070
     0
1000
MTEXTEND
  0
POINT
  5
7DC
330
6F6
100
AcDbEntity
  8
Defpoints
  6
Continuous
 62
     0
100
AcDbPoint
 10
818.6643370809925
 20
1531.034521081102
 30
272.3935238164072
  0
POINT
  5
7DD
330
6F6
100
AcDbEntity
  8
Defpoints
  6
Continuous
 62
     0
100
AcDbPoint
 10
741.4828141019389
 20
655.5345210811251
 30
272.3935238163962
  0
POINT
  5
7DE
330
6F6
100
AcDbEntity
  8
Defpoints
  6
Continuous
 62
     0
100
AcDbPoint
 10
557.8942007692185
 20
655.5345210811251
 30
0.0
  0
ENDBLK
  5
780
330
6F6
100
AcDbEntity
  8
0
100
AcDbBlockEnd
  0
BLOCK
  5
781
330
700
100
AcDbEntity
  8
0
100
AcDbBlockBegin
  2
*D26
 70
     1
 10
0.0
 20
0.0
 30
0.0
  3
*D26
  1

  0
LINE
  5
7E0
330
700
100
AcDbEntity
  8
MAAL
  6
Continuous
 62
     1
370
    -2
100
AcDbLine
 10
721.4828141019443
 20
1355.534521081125
 30
0.0
 11
639.4396037366952
 21
1355.534521081125
 31
0.0
  0
LINE
  5
7E1
330
700
100
AcDbEntity
  8
MAAL
  6
Continuous
 62
     1
370
    -2
100
AcDbLine
 10
721.482814101937
 20
655.5345210811251
 30
0.0
 11
639.439603736695
 21
655.5345210811251
 31
0.0
  0
LINE
  5
7E2
330
700
100
AcDbEntity
  8
MAAL
  6
Continuous
 62
     1
370
    -2
100
AcDbLine
 10
659.4396037366952
 20
1340.534521081125
 30
0.0
 11
659.4396037366951
 21
670.5345210811251
 31
0.0
  0
INSERT
  5
7E3
330
700
100
AcDbEntity
  8
MAAL
  6
Continuous
 62
     1
370
    -2
100
AcDbBlockReference
  2
PILE1
 10
659.4396037366952
 20
1355.534521081125
 30
0.0
 41
15.0
 42
15.0
 43
15.0
 50
90.0
  0
INSERT
  5
7E4
330
700
100
AcDbEntity
  8
MAAL
  6
Continuous
 62
     1
370
    -2
100
AcDbBlockReference
  2
PILE1
 10
659.4396037366951
 20
655.5345210811251
 30
0.0
 41
15.0
 42
15.0
 43
15.0
 50
270.0
  0
MTEXT
  5
7E5
330
700
100
AcDbEntity
  8
MAAL
  6
Continuous
 62
     4
100
AcDbMText
 10
626.939603736695
 20
1005.534521081125
 30
0.0
 40
35.0
 41
0.0
 71
     5
 72
     1
  1
\A1;700
  7
ROMANS
 11
0.0000000000000001
 21
1.0
 31
0.0
 73
     1
 44
1.0
1001
ACAD
1000
MTEXTBEGIN
1070
    73
1070
     1
1070
    44
1040
1.0
1070
    74
1070
     0
1000
MTEXTEND
  0
POINT
  5
7E6
330
700
100
AcDbEntity
  8
Defpoints
  6
Continuous
 62
     0
100
AcDbPoint
 10
741.4828141019443
 20
1355.534521081125
 30
272.393523816395
  0
POINT
  5
7E7
330
700
100
AcDbEntity
  8
Defpoints
  6
Continuous
 62
     0
100
AcDbPoint
 10
741.482814101937
 20
655.5345210811251
 30
272.3935238163962
  0
POINT
  5
7E8
330
700
100
AcDbEntity
  8
Defpoints
  6
Continuous
 62
     0
100
AcDbPoint
 10
659.4396037366951
 20
655.5345210811251
 30
0.0
  0
ENDBLK
  5
782
330
700
100
AcDbEntity
  8
0
100
AcDbBlockEnd
  0
ENDSEC
  0
SECTION
  2
ENTITIES
  0
DIMENSION
  5
4FA
330
1F
100
AcDbEntity
  8
MAAL
  6
Continuous
100
AcDbDimension
  2
*D22
 10
1025.482814101959
 20
1673.846403682666
 30
0.0
 11
1441.482814101964
 21
1706.346403682666
 31
0.0
 70
    32
  1
860
 71
     5
 42
83.2000000000011
  3
ROPOX
100
AcDbAlignedDimension
 13
1857.48281410197
 23
1972.807743307165
 33
272.3935238164425
 14
1025.482814101959
 24
1972.807743307162
 34
272.3935238164453
100
AcDbRotatedDimension
1001
ACAD
1000
DSTYLE
1002
{
1070
   144
1040
0.1
1002
}
  0
DIMENSION
  5
4FB
330
1F
100
AcDbEntity
  8
MAAL
  6
Continuous
100
AcDbDimension
  2
*D23
 10
557.894200769219
 20
2833.807743306673
 30
0.0
 11
557.8942007692185
 21
2333.807743306673
 31
0.0
 70
   160
  1
<>0
 71
     5
 42
99.99999999999994
  3
ROPOX
100
AcDbAlignedDimension
 13
818.6643370809925
 23
1833.807743306673
 33
272.3935238164522
 14
741.4828141019533
 24
2833.807743306673
 34
272.3935238164525
 50
90.0
100
AcDbRotatedDimension
1001
ACAD
1000
DSTYLE
1002
{
1070
   144
1040
0.1
1002
}
  0
DIMENSION
  5
4FC
330
1F
100
AcDbEntity
  8
MAAL
  6
Continuous
100
AcDbDimension
  2
*D24
 10
659.2027151875063
 20
1833.807743306673
 30
0.0
 11
626.7027151875059
 21
1983.807743306673
 31
0.0
 70
    32
  1
<>0
 71
     5
 42
29.99999999999993
  3
ROPOX
100
AcDbAlignedDimension
 13
741.4828141019552
 23
2133.807743306673
 33
272.3935238164525
 14
818.6643370809925
 24
1833.807743306673
 34
272.3935238164522
 50
90.0
100
AcDbRotatedDimension
1001
ACAD
1000
DSTYLE
1002
{
1070
   144
1040
0.1
1002
}
  0
LINE
  5
4FD
330
1F
100
AcDbEntity
  8
EMNE
100
AcDbLine
 10
1086.482814101966
 20
2063.807743307492
 30
272.3935238164507
 11
1086.482814101966
 21
1853.807743306673
 31
272.3935238164504
  0
LINE
  5
4FE
330
1F
100
AcDbEntity
  8
EMNE
100
AcDbLine
 10
1796.482814101966
 20
1853.807743306675
 30
272.3935238164477
 11
1796.482814101966
 21
2063.807743307495
 31
272.3935238164477
  0
DIMENSION
  5
4FF
330
1F
100
AcDbEntity
  8
MAAL
  6
Continuous
100
AcDbDimension
  2
*D25
 10
557.8942007692185
 20
655.5345210811251
 30
0.0
 11
557.8942007692185
 21
1093.284521081113
 31
0.0
 70
   160
  1
890
 71
     5
 42
87.54999999999773
  3
ROPOX
100
AcDbAlignedDimension
 13
818.6643370809925
 23
1531.034521081102
 33
272.3935238164072
 14
741.4828141019389
 24
655.5345210811251
 34
272.3935238163962
 50
90.0
100
AcDbRotatedDimension
1001
ACAD
1000
DSTYLE
1002
{
1070
   144
1040
0.1
1002
}
  0
DIMENSION
  5
500
330
1F
100
AcDbEntity
  8
MAAL
  6
Continuous
100
AcDbDimension
  2
*D26
 10
659.4396037366951
 20
655.5345210811251
 30
0.0
 11
626.939603736695
 21
1005.534521081125
 31
0.0
 70
    32
  1
<>0
 71
     5
 42
70.00000000000001
  3
ROPOX
100
AcDbAlignedDimension
 13
741.4828141019443
 23
1355.534521081125
 33
272.393523816395
 14
741.482814101937
 24
655.5345210811251
 34
272.3935238163962
 50
90.0
100
AcDbRotatedDimension
1001
ACAD
1000
DSTYLE
1002
{
1070
   144
1040
0.1
1002
}
  0
LINE
  5
501
330
1F
100
AcDbEntity
  8
EMNE
100
AcDbLine
 10
741.4828141019443
 20
1355.534521081124
 30
272.3935238163966
 11
741.4828141019389
 21
655.5345210811242
 31
272.3935238164769
  0
LINE
  5
502
330
1F
100
AcDbEntity
  8
EMNE
100
AcDbLine
 10
2141.482814101944
 20
1355.534521081088
 30
272.3935238164494
 11
2141.482814101941
 21
655.5345210810878
 31
272.3935238164528
  0
LINE
  5
503
330
1F
100
AcDbEntity
  8
EMNE
100
AcDbLine
 10
741.482814101937
 20
655.5345210811251
 30
272.3935238163962
 11
2141.482814101941
 21
655.534521081087
 31
272.3935238164494
  0
LINE
  5
504
330
1F
100
AcDbEntity
  8
EMNE
100
AcDbLine
 10
2067.388226343485
 20
1531.034521081108
 30
272.3935238164017
 11
818.6643370809925
 21
1531.034521081102
 31
272.3935238164072
  0
LINE
  5
505
330
1F
100
AcDbEntity
  8
EMNE
100
AcDbLine
 10
741.4828141019406
 20
1355.534521081125
 30
272.393523816395
 11
2141.482814101944
 21
1355.534521081088
 31
272.3935238164481
  0
LINE
  5
506
330
1F
100
AcDbEntity
  8
EMNE
100
AcDbLine
 10
2067.388226343485
 20
1833.807743306678
 30
272.3935238164468
 11
818.6643370809925
 21
1833.807743306673
 31
272.3935238164522
  0
LINE
  5
507
330
1F
100
AcDbEntity
  8
EMNE
  6
Continuous
100
AcDbLine
 10
1086.482814101966
 20
1521.034521081099
 30
272.3935238164499
 11
1086.482814101966
 21
1451.034521081101
 31
272.393523816449
  0
LINE
  5
508
330
1F
100
AcDbEntity
  8
EMNE
  6
Continuous
100
AcDbLine
 10
1796.482814101966
 20
1521.034521081099
 30
272.3935238164477
 11
1796.482814101966
 21
1451.03452108109
 31
272.3935238164477
  0
LINE
  5
509
330
1F
100
AcDbEntity
  8
EMNE
100
AcDbLine
 10
1807.482814101946
 20
1491.034521081087
 30
272.3935238164498
 11
1807.482814101944
 21
1416.034521081085
 31
272.3935238164502
  0
LINE
  5
50A
330
1F
100
AcDbEntity
  8
EMNE
100
AcDbLine
 10
1806.482814101944
 20
1475.534521081087
 30
272.39352381645
 11
1806.482814101944
 21
1355.534521081097
 31
272.3935238164508
  0
LINE
  5
50B
330
1F
100
AcDbEntity
  8
EMNE
100
AcDbLine
 10
1847.482814101944
 20
1491.034521081089
 30
272.3935238164516
 11
1847.482814101944
 21
1391.034521081088
 31
272.3935238164502
  0
LINE
  5
50C
330
1F
100
AcDbEntity
  8
EMNE
100
AcDbLine
 10
1075.48281410195
 20
1491.034521081091
 30
272.3935238164504
 11
1075.482814101951
 21
1416.03452108109
 31
272.3935238164508
  0
LINE
  5
50D
330
1F
100
AcDbEntity
  8
EMNE
100
AcDbLine
 10
1076.482814101951
 20
1475.534521081092
 30
272.3935238164496
 11
1076.482814101948
 21
1355.534521081116
 31
272.3935238164516
  0
LINE
  5
50E
330
1F
100
AcDbEntity
  8
EMNE
100
AcDbLine
 10
1035.482814101951
 20
1491.034521081095
 30
272.3935238164516
 11
1035.482814101951
 21
1391.034521081091
 31
272.3935238164515
  0
LINE
  5
50F
330
1F
100
AcDbEntity
  8
EMNE
  6
Continuous
100
AcDbLine
 10
1096.482814101966
 20
1391.534521081103
 30
272.3935238164504
 11
1786.482814101966
 21
1391.534521081095
 31
272.3935238164503
  0
LINE
  5
510
330
1F
100
AcDbEntity
  8
EMNE
  6
Continuous
100
AcDbLine
 10
1786.482814101966
 20
1441.03452108109
 30
272.3935238164497
 11
1096.482814101966
 21
1441.034521081101
 31
272.3935238164517
  0
LINE
  5
511
330
1F
100
AcDbEntity
  8
EMNE
  6
Continuous
100
AcDbLine
 10
1086.482814101966
 20
1401.534521081103
 30
272.3935238164494
 11
1086.482814101966
 21
1451.034521081095
 31
272.3935238164452
  0
LINE
  5
512
330
1F
100
AcDbEntity
  8
EMNE
100
AcDbLine
 10
1056.482814101953
 20
1416.034521081091
 30
272.3935238164504
 11
1056.482814101948
 21
1355.534521081117
 31
272.3935238164509
  0
LINE
  5
513
330
1F
100
AcDbEntity
  8
EMNE
100
AcDbLine
 10
1043.482814101951
 20
1416.034521081092
 30
272.3935238164487
 11
1043.48281410195
 21
1391.034521081092
 31
272.3935238164487
  0
LINE
  5
514
330
1F
100
AcDbEntity
  8
EMNE
100
AcDbLine
 10
1076.482814101951
 20
1372.534521081088
 30
272.3935238164494
 11
1079.482814101948
 21
1372.534521081088
 31
272.3935238164494
  0
LINE
  5
515
330
1F
100
AcDbEntity
  8
EMNE
100
AcDbLine
 10
1076.482814101951
 20
1384.534521081088
 30
272.3935238164478
 11
1079.482814101948
 21
1384.534521081088
 31
272.3935238164478
  0
LINE
  5
516
330
1F
100
AcDbEntity
  8
EMNE
100
AcDbLine
 10
1027.98281410195
 20
1384.534521081088
 30
272.3935238164505
 11
1027.982814101948
 21
1372.534521081089
 31
272.3935238164527
  0
LINE
  5
517
330
1F
100
AcDbEntity
  8
EMNE
100
AcDbLine
 10
1052.482814101948
 20
1391.034521081093
 30
272.393523816449
 11
1052.482814101948
 21
1366.034521081092
 31
272.3935238164505
  0
LINE
  5
518
330
1F
100
AcDbEntity
  8
EMNE
100
AcDbLine
 10
1032.482814101948
 20
1391.034521081093
 30
272.3935238164508
 11
1032.482814101948
 21
1366.034521081093
 31
272.3935238164523
  0
LINE
  5
519
330
1F
100
AcDbEntity
  8
EMNE
100
AcDbLine
 10
1027.982814101948
 20
1372.534521081089
 30
272.3935238164495
 11
1032.482814101948
 21
1372.534521081089
 31
272.3935238164495
  0
LINE
  5
51A
330
1F
100
AcDbEntity
  8
EMNE
100
AcDbLine
 10
1052.482814101948
 20
1372.534521081088
 30
272.3935238164494
 11
1056.482814101948
 21
1372.534521081088
 31
272.3935238164494
  0
LINE
  5
51B
330
1F
100
AcDbEntity
  8
EMNE
100
AcDbLine
 10
1032.482814101948
 20
1366.034521081092
 30
272.3935238164494
 11
1052.482814101948
 21
1366.034521081093
 31
272.393523816444
  0
LINE
  5
51C
330
1F
100
AcDbEntity
  8
EMNE
100
AcDbLine
 10
1025.482814101944
 20
1370.534521081095
 30
272.3935238164524
 11
1025.482814101944
 21
1355.534521081118
 31
272.3935238164519
  0
LINE
  5
51D
330
1F
100
AcDbEntity
  8
EMNE
100
AcDbLine
 10
1020.482814101944
 20
1370.534521081095
 30
272.3935238164512
 11
1020.482814101944
 21
1355.534521081118
 31
272.393523816452
  0
LINE
  5
51E
330
1F
100
AcDbEntity
  8
EMNE
100
AcDbLine
 10
1020.482814101944
 20
1370.534521081095
 30
272.3935238164515
 11
1025.482814101944
 21
1370.534521081095
 31
272.3935238164029
  0
LINE
  5
51F
330
1F
100
AcDbEntity
  8
MIDT
100
AcDbLine
 10
1015.482814101942
 20
1360.518814616028
 30
272.3935238164513
 11
1030.482814101942
 21
1360.518814616028
 31
272.3935238164511
  0
LINE
  5
520
330
1F
100
AcDbEntity
  8
EMNE
100
AcDbLine
 10
1025.482814101944
 20
1370.534521081095
 30
272.3935238164524
 11
1025.482814101944
 21
1355.534521081118
 31
272.3935238164519
  0
LINE
  5
521
330
1F
100
AcDbEntity
  8
EMNE
100
AcDbLine
 10
1035.48281410195
 20
1391.034521081092
 30
272.3935238164501
 11
1043.482814101951
 21
1391.034521081091
 31
272.3935238164508
  0
LINE
  5
522
330
1F
100
AcDbEntity
  8
EMNE
100
AcDbLine
 10
1032.482814101948
 20
1391.034521081093
 30
272.3935238164508
 11
1052.482814101948
 21
1391.034521081093
 31
272.393523816449
  0
LINE
  5
523
330
1F
100
AcDbEntity
  8
EMNE
100
AcDbLine
 10
1027.98281410195
 20
1384.534521081089
 30
272.393523816451
 11
1032.482814101948
 21
1384.534521081089
 31
272.393523816451
  0
LINE
  5
524
330
1F
100
AcDbEntity
  8
EMNE
100
AcDbLine
 10
1052.482814101949
 20
1384.534521081088
 30
272.3935238164494
 11
1056.482814101951
 21
1384.534521081088
 31
272.3935238164492
  0
ARC
  5
525
330
1F
100
AcDbEntity
  8
EMNE
  6
Continuous
100
AcDbCircle
 10
1096.482814101966
 20
1401.534521081079
 30
272.3935238164163
 40
10.0
100
AcDbArc
 50
180.0
 51
270.0
  0
LINE
  5
526
330
1F
100
AcDbEntity
  8
EMNE
100
AcDbLine
 10
1079.482814101948
 20
1384.534521081089
 30
272.393523816451
 11
1079.482814101948
 21
1372.534521081089
 31
272.3935238164527
  0
LINE
  5
527
330
1F
100
AcDbEntity
  8
EMNE
100
AcDbLine
 10
1035.482814101946
 20
1416.034521081093
 30
272.3935238164505
 11
1075.482814101951
 21
1416.03452108109
 31
272.3935238164513
  0
ARC
  5
528
330
1F
100
AcDbEntity
  8
EMNE
  6
Continuous
100
AcDbCircle
 10
1096.482814101966
 20
1451.034521081095
 30
272.3935238164452
 40
10.0
100
AcDbArc
 50
180.0
 51
270.0
  0
LINE
  5
529
330
1F
100
AcDbEntity
  8
EMNE
  6
Continuous
100
AcDbLine
 10
1796.482814101966
 20
1401.534521081095
 30
272.3935238164504
 11
1796.482814101966
 21
1451.03452108109
 31
272.3935238164511
  0
LINE
  5
52A
330
1F
100
AcDbEntity
  8
EMNE
100
AcDbLine
 10
1826.482814101948
 20
1416.034521081086
 30
272.3935238164482
 11
1826.482814101946
 21
1355.534521081096
 31
272.3935238164496
  0
LINE
  5
52B
330
1F
100
AcDbEntity
  8
EMNE
100
AcDbLine
 10
1839.482814101946
 20
1416.034521081087
 30
272.3935238164474
 11
1839.482814101944
 21
1391.034521081088
 31
272.3935238164472
  0
ARC
  5
52C
330
1F
100
AcDbEntity
  8
EMNE
  6
Continuous
100
AcDbCircle
 10
1786.482814101966
 20
1401.534521081099
 30
272.3935238164557
 40
10.0
100
AcDbArc
 50
270.0
 51
0.0
  0
LINE
  5
52D
330
1F
100
AcDbEntity
  8
EMNE
100
AcDbLine
 10
1857.482814101988
 20
1370.534521081095
 30
272.3935238164524
 11
1857.48281410199
 21
1355.534521081118
 31
272.3935238164519
  0
LINE
  5
52E
330
1F
100
AcDbEntity
  8
EMNE
100
AcDbLine
 10
1857.482814101988
 20
1370.534521081095
 30
272.3935238164524
 11
1857.48281410199
 21
1355.534521081118
 31
272.3935238164519
  0
LINE
  5
52F
330
1F
100
AcDbEntity
  8
EMNE
100
AcDbLine
 10
1862.48281410199
 20
1370.534521081095
 30
272.3935238164512
 11
1862.482814101988
 21
1355.534521081118
 31
272.393523816452
  0
LINE
  5
530
330
1F
100
AcDbEntity
  8
MIDT
100
AcDbLine
 10
1867.482814101991
 20
1360.518814616028
 30
272.3935238164513
 11
1852.482814101992
 21
1360.518814616028
 31
272.3935238164511
  0
LINE
  5
531
330
1F
100
AcDbEntity
  8
EMNE
100
AcDbLine
 10
1862.48281410199
 20
1370.534521081095
 30
272.3935238164515
 11
1857.482814101992
 21
1370.534521081095
 31
272.3935238164029
  0
LINE
  5
532
330
1F
100
AcDbEntity
  8
EMNE
100
AcDbLine
 10
1803.482814101944
 20
1384.534521081083
 30
272.3935238164508
 11
1803.482814101944
 21
1372.534521081085
 31
272.393523816452
  0
LINE
  5
533
330
1F
100
AcDbEntity
  8
EMNE
100
AcDbLine
 10
1854.982814101944
 20
1384.534521081082
 30
272.3935238164503
 11
1854.982814101944
 21
1372.534521081083
 31
272.3935238164524
  0
LINE
  5
534
330
1F
100
AcDbEntity
  8
EMNE
100
AcDbLine
 10
1850.482814101944
 20
1391.034521081089
 30
272.3935238164498
 11
1850.482814101946
 21
1366.034521081089
 31
272.393523816451
  0
LINE
  5
535
330
1F
100
AcDbEntity
  8
EMNE
100
AcDbLine
 10
1830.482814101944
 20
1391.034521081089
 30
272.3935238164476
 11
1830.482814101948
 21
1366.034521081089
 31
272.3935238164492
  0
LINE
  5
536
330
1F
100
AcDbEntity
  8
EMNE
100
AcDbLine
 10
1806.482814101946
 20
1372.534521081083
 30
272.3935238164495
 11
1803.482814101944
 21
1372.534521081084
 31
272.3935238164489
  0
LINE
  5
537
330
1F
100
AcDbEntity
  8
EMNE
100
AcDbLine
 10
1854.982814101944
 20
1372.534521081084
 30
272.3935238164482
 11
1850.482814101948
 21
1372.534521081085
 31
272.3935238164491
  0
LINE
  5
538
330
1F
100
AcDbEntity
  8
EMNE
100
AcDbLine
 10
1830.482814101948
 20
1372.534521081083
 30
272.393523816448
 11
1826.482814101944
 21
1372.534521081083
 31
272.39352381645
  0
LINE
  5
539
330
1F
100
AcDbEntity
  8
EMNE
100
AcDbLine
 10
1850.482814101944
 20
1366.034521081088
 30
272.393523816449
 11
1830.482814101944
 21
1366.034521081089
 31
272.3935238164428
  0
LINE
  5
53A
330
1F
100
AcDbEntity
  8
EMNE
100
AcDbLine
 10
1830.482814101948
 20
1384.534521081084
 30
272.3935238164485
 11
1826.482814101944
 21
1384.534521081083
 31
272.3935238164493
  0
LINE
  5
53B
330
1F
100
AcDbEntity
  8
EMNE
100
AcDbLine
 10
1806.482814101948
 20
1384.534521081085
 30
272.3935238164464
 11
1803.482814101944
 21
1384.534521081084
 31
272.3935238164469
  0
LINE
  5
53C
330
1F
100
AcDbEntity
  8
EMNE
100
AcDbLine
 10
1854.982814101944
 20
1384.534521081083
 30
272.3935238164506
 11
1850.482814101948
 21
1384.534521081084
 31
272.393523816449
  0
LINE
  5
53D
330
1F
100
AcDbEntity
  8
EMNE
100
AcDbLine
 10
1847.482814101944
 20
1391.034521081087
 30
272.3935238164498
 11
1839.482814101944
 21
1391.034521081087
 31
272.3935238164505
  0
LINE
  5
53E
330
1F
100
AcDbEntity
  8
EMNE
100
AcDbLine
 10
1850.482814101944
 20
1391.034521081089
 30
272.3935238164498
 11
1830.482814101944
 21
1391.034521081089
 31
272.3935238164476
  0
ARC
  5
53F
330
1F
100
AcDbEntity
  8
EMNE
  6
Continuous
100
AcDbCircle
 10
1786.482814101966
 20
1451.03452108109
 30
272.3935238164511
 40
10.0
100
AcDbArc
 50
270.0
 51
0.0
  0
LINE
  5
540
330
1F
100
AcDbEntity
  8
EMNE
100
AcDbLine
 10
1847.482814101949
 20
1416.034521081089
 30
272.3935238164497
 11
1807.482814101944
 21
1416.034521081085
 31
272.3935238164505
  0
LINE
  5
541
330
1F
100
AcDbEntity
  8
MAAL
100
AcDbLine
 10
950.4869320910202
 20
1557.466500409507
 30
272.3935238164062
 11
969.6628357046611
 21
1531.034521081101
 31
272.3935238164062
  0
LINE
  5
542
330
1F
100
AcDbEntity
  8
MAAL
100
AcDbLine
 10
950.486932091022
 20
1807.375763978269
 30
272.3935238164512
 11
969.6628357046611
 21
1833.807743306676
 31
272.3935238164512
  0
LINE
  5
543
330
1F
100
AcDbEntity
  8
MAAL
100
AcDbLine
 10
910.4869320910202
 20
1557.466500409505
 30
272.3935238164062
 11
929.6628357046611
 21
1531.0345210811
 31
272.3935238164071
  0
LINE
  5
544
330
1F
100
AcDbEntity
  8
MAAL
100
AcDbLine
 10
870.4869320910201
 20
1557.466500409505
 30
272.3935238164064
 11
889.662835704661
 21
1531.0345210811
 31
272.3935238164072
  0
LINE
  5
545
330
1F
100
AcDbEntity
  8
MAAL
100
AcDbLine
 10
870.4869320910219
 20
1807.375763978271
 30
272.3935238164514
 11
889.662835704661
 21
1833.807743306676
 31
272.3935238164523
  0
LINE
  5
546
330
1F
100
AcDbEntity
  8
MAAL
100
AcDbLine
 10
910.486932091022
 20
1807.375763978271
 30
272.3935238164512
 11
929.6628357046611
 21
1833.807743306676
 31
272.3935238164521
  0
LINE
  5
547
330
1F
100
AcDbEntity
  8
EMNE
100
AcDbLine
 10
1456.482814101951
 20
1521.034521081111
 30
272.3935238164477
 11
1426.482814101948
 21
1521.034521081113
 31
272.3935238164321
  0
LINE
  5
548
330
1F
100
AcDbEntity
  8
EMNE
100
AcDbLine
 10
1426.482814101955
 20
1531.034521081109
 30
272.3935238164519
 11
1456.482814101964
 21
1531.034521081108
 31
272.3935238164472
  0
LINE
  5
549
330
1F
100
AcDbEntity
  8
EMNE
100
AcDbLine
 10
1796.482814101966
 20
1521.034521081099
 30
272.3935238164477
 11
1086.482814101966
 21
1521.034521081099
 31
272.3935238164499
  0
LINE
  5
54A
330
1F
100
AcDbEntity
  8
MAAL
100
AcDbLine
 10
1190.48693209102
 20
1557.46650040951
 30
272.3935238164045
 11
1209.662835704659
 21
1531.034521081104
 31
272.3935238164054
  0
LINE
  5
54B
330
1F
100
AcDbEntity
  8
EMNE
100
AcDbLine
 10
1173.482814101955
 20
1531.0345210811
 30
272.3935238164519
 11
1213.482814101952
 21
1531.0345210811
 31
272.3935238164499
  0
LINE
  5
54C
330
1F
100
AcDbEntity
  8
EMNE
100
AcDbLine
 10
1043.482814101951
 20
1521.0345210811
 30
272.3935238164508
 11
1043.482814101953
 21
1491.034521081093
 31
272.39352381645
  0
LINE
  5
54D
330
1F
100
AcDbEntity
  8
EMNE
100
AcDbLine
 10
1086.482814101966
 20
1513.034521081101
 30
272.3935238164497
 11
1051.482814101951
 21
1513.0345210811
 31
272.3935238164494
  0
LINE
  5
54E
330
1F
100
AcDbEntity
  8
EMNE
100
AcDbLine
 10
1035.482814101951
 20
1491.034521081093
 30
272.3935238164515
 11
1075.48281410195
 21
1491.034521081091
 31
272.3935238164504
  0
LINE
  5
54F
330
1F
100
AcDbEntity
  8
EMNE
100
AcDbLine
 10
1075.482814101951
 20
1475.534521081092
 30
272.3935238164487
 11
1076.482814101951
 21
1475.534521081092
 31
272.3935238164489
  0
LINE
  5
550
330
1F
100
AcDbEntity
  8
EMNE
100
AcDbLine
 10
1035.482814101951
 20
1491.034521081096
 30
272.3935238164506
 11
1043.482814101951
 21
1491.034521081094
 31
272.3935238164489
  0
LINE
  5
551
330
1F
100
AcDbEntity
  8
EMNE
100
AcDbLine
 10
1051.482814101951
 20
1513.0345210811
 30
272.3935238164501
 11
1051.482814101951
 21
1491.034521081093
 31
272.39352381645
  0
LINE
  5
552
330
1F
100
AcDbEntity
  8
MAAL
100
AcDbLine
 10
1070.48693209102
 20
1557.466500409509
 30
272.3935238164054
 11
1089.662835704659
 21
1531.034521081103
 31
272.3935238164054
  0
LINE
  5
553
330
1F
100
AcDbEntity
  8
MAAL
100
AcDbLine
 10
1070.48693209102
 20
1557.466500409508
 30
272.3935238164054
 11
1089.662835704659
 21
1531.034521081101
 31
272.3935238164054
  0
LINE
  5
554
330
1F
100
AcDbEntity
  8
EMNE
100
AcDbLine
 10
1093.482814101948
 20
1521.0345210811
 30
272.3935238164497
 11
1043.482814101951
 21
1521.0345210811
 31
272.3935238164485
  0
LINE
  5
555
330
1F
100
AcDbEntity
  8
MAAL
100
AcDbLine
 10
1030.48693209102
 20
1557.466500409509
 30
272.3935238164054
 11
1049.662835704659
 21
1531.034521081102
 31
272.3935238164063
  0
LINE
  5
556
330
1F
100
AcDbEntity
  8
MAAL
100
AcDbLine
 10
990.4869320910203
 20
1557.466500409508
 30
272.3935238164052
 11
1009.662835704661
 21
1531.034521081101
 31
272.3935238164062
  0
LINE
  5
557
330
1F
100
AcDbEntity
  8
MAAL
100
AcDbLine
 10
1150.48693209102
 20
1557.46650040951
 30
272.3935238164045
 11
1169.662835704659
 21
1531.034521081104
 31
272.3935238164054
  0
LINE
  5
558
330
1F
100
AcDbEntity
  8
MAAL
100
AcDbLine
 10
1110.48693209102
 20
1557.46650040951
 30
272.3935238164063
 11
1129.662835704659
 21
1531.034521081103
 31
272.3935238164054
  0
LINE
  5
559
330
1F
100
AcDbEntity
  8
EMNE
100
AcDbLine
 10
1163.482814101962
 20
1531.03452108111
 30
272.3935238164546
 11
1163.482814101962
 21
1521.034521081114
 31
272.3935238164544
  0
LINE
  5
55A
330
1F
100
AcDbEntity
  8
EMNE
100
AcDbLine
 10
1193.482814101973
 20
1531.03452108111
 30
272.3935238164503
 11
1193.48281410197
 21
1521.034521081112
 31
272.39352381645
  0
LINE
  5
55B
330
1F
100
AcDbEntity
  8
EMNE
100
AcDbLine
 10
1193.482814101966
 20
1521.034521081113
 30
272.3935238164504
 11
1163.482814101962
 21
1521.034521081114
 31
272.3935238164354
  0
LINE
  5
55C
330
1F
100
AcDbEntity
  8
EMNE
100
AcDbLine
 10
1163.482814101966
 20
1531.03452108111
 30
272.3935238164541
 11
1193.482814101979
 21
1531.03452108111
 31
272.3935238164501
  0
LINE
  5
55D
330
1F
100
AcDbEntity
  8
MAAL
100
AcDbLine
 10
1310.48693209102
 20
1557.466500409512
 30
272.3935238164045
 11
1329.662835704659
 21
1531.034521081105
 31
272.3935238164045
  0
LINE
  5
55E
330
1F
100
AcDbEntity
  8
MAAL
100
AcDbLine
 10
1270.48693209102
 20
1557.466500409511
 30
272.3935238164045
 11
1289.662835704659
 21
1531.034521081104
 31
272.3935238164054
  0
LINE
  5
55F
330
1F
100
AcDbEntity
  8
MAAL
100
AcDbLine
 10
1230.48693209102
 20
1557.466500409511
 30
272.3935238164045
 11
1249.662835704659
 21
1531.034521081104
 31
272.3935238164054
  0
LINE
  5
560
330
1F
100
AcDbEntity
  8
EMNE
100
AcDbLine
 10
1213.482814101952
 20
1531.0345210811
 30
272.3935238164501
 11
1213.482814101952
 21
1521.034521081099
 31
272.3935238164501
  0
LINE
  5
561
330
1F
100
AcDbEntity
  8
MAAL
100
AcDbLine
 10
1390.48693209102
 20
1557.466500409512
 30
272.3935238164045
 11
1409.662835704659
 21
1531.034521081105
 31
272.3935238164045
  0
LINE
  5
562
330
1F
100
AcDbEntity
  8
MAAL
100
AcDbLine
 10
1350.48693209102
 20
1557.466500409512
 30
272.3935238164045
 11
1369.662835704659
 21
1531.034521081105
 31
272.3935238164045
  0
LINE
  5
563
330
1F
100
AcDbEntity
  8
EMNE
100
AcDbLine
 10
1426.482814101951
 20
1531.034521081109
 30
272.3935238164517
 11
1426.482814101951
 21
1521.034521081112
 31
272.3935238164513
  0
LINE
  5
564
330
1F
100
AcDbEntity
  8
MAAL
100
AcDbLine
 10
1510.48693209102
 20
1557.466500409511
 30
272.3935238164045
 11
1529.662835704659
 21
1531.034521081105
 31
272.3935238164045
  0
LINE
  5
565
330
1F
100
AcDbEntity
  8
MAAL
100
AcDbLine
 10
1430.48693209102
 20
1557.466500409512
 30
272.3935238164045
 11
1449.662835704659
 21
1531.034521081106
 31
272.3935238164045
  0
LINE
  5
566
330
1F
100
AcDbEntity
  8
MAAL
100
AcDbLine
 10
1470.48693209102
 20
1557.466500409511
 30
272.3935238164045
 11
1489.662835704659
 21
1531.034521081106
 31
272.3935238164045
  0
LINE
  5
567
330
1F
100
AcDbEntity
  8
EMNE
100
AcDbLine
 10
1456.482814101959
 20
1531.034521081108
 30
272.3935238164477
 11
1456.482814101959
 21
1521.03452108111
 31
272.3935238164469
  0
LINE
  5
568
330
1F
100
AcDbEntity
  8
MAAL
100
AcDbLine
 10
1590.48693209102
 20
1557.466500409512
 30
272.3935238164036
 11
1609.662835704659
 21
1531.034521081105
 31
272.3935238164036
  0
LINE
  5
569
330
1F
100
AcDbEntity
  8
MAAL
100
AcDbLine
 10
1630.48693209102
 20
1557.466500409512
 30
272.3935238164036
 11
1649.662835704659
 21
1531.034521081106
 31
272.3935238164036
  0
LINE
  5
56A
330
1F
100
AcDbEntity
  8
MAAL
100
AcDbLine
 10
1550.48693209102
 20
1557.466500409512
 30
272.3935238164036
 11
1569.662835704659
 21
1531.034521081105
 31
272.3935238164036
  0
LINE
  5
56B
330
1F
100
AcDbEntity
  8
EMNE
100
AcDbLine
 10
1839.482814101944
 20
1521.034521081095
 30
272.3935238164507
 11
1839.482814101944
 21
1491.034521081088
 31
272.3935238164499
  0
LINE
  5
56C
330
1F
100
AcDbEntity
  8
EMNE
100
AcDbLine
 10
1796.482814101966
 20
1513.034521081097
 30
272.393523816449
 11
1831.482814101944
 21
1513.034521081096
 31
272.3935238164484
  0
LINE
  5
56D
330
1F
100
AcDbEntity
  8
EMNE
100
AcDbLine
 10
1847.482814101944
 20
1491.034521081088
 30
272.3935238164519
 11
1807.482814101946
 21
1491.034521081087
 31
272.3935238164498
  0
LINE
  5
56E
330
1F
100
AcDbEntity
  8
EMNE
100
AcDbLine
 10
1807.482814101948
 20
1475.534521081088
 30
272.3935238164478
 11
1806.482814101944
 21
1475.534521081088
 31
272.3935238164494
  0
LINE
  5
56F
330
1F
100
AcDbEntity
  8
EMNE
100
AcDbLine
 10
1847.482814101946
 20
1491.03452108109
 30
272.3935238164499
 11
1839.482814101944
 21
1491.03452108109
 31
272.3935238164486
  0
LINE
  5
570
330
1F
100
AcDbEntity
  8
EMNE
100
AcDbLine
 10
1831.482814101944
 20
1513.034521081096
 30
272.3935238164493
 11
1831.482814101944
 21
1491.034521081088
 31
272.3935238164494
  0
LINE
  5
571
330
1F
100
AcDbEntity
  8
MAAL
100
AcDbLine
 10
1710.48693209102
 20
1557.466500409513
 30
272.3935238164045
 11
1729.662835704659
 21
1531.034521081107
 31
272.3935238164036
  0
LINE
  5
572
330
1F
100
AcDbEntity
  8
MAAL
100
AcDbLine
 10
1750.48693209102
 20
1557.466500409513
 30
272.3935238164036
 11
1769.662835704659
 21
1531.034521081107
 31
272.3935238164027
  0
LINE
  5
573
330
1F
100
AcDbEntity
  8
MAAL
100
AcDbLine
 10
1670.48693209102
 20
1557.466500409512
 30
272.3935238164036
 11
1689.662835704659
 21
1531.034521081106
 31
272.3935238164036
  0
LINE
  5
574
330
1F
100
AcDbEntity
  8
EMNE
100
AcDbLine
 10
1719.482814101959
 20
1531.034521081107
 30
272.3935238164484
 11
1719.482814101955
 21
1521.03452108111
 31
272.3935238164478
  0
LINE
  5
575
330
1F
100
AcDbEntity
  8
EMNE
100
AcDbLine
 10
1689.482814101948
 20
1531.034521081107
 30
272.3935238164524
 11
1689.482814101948
 21
1521.034521081111
 31
272.393523816452
  0
LINE
  5
576
330
1F
100
AcDbEntity
  8
EMNE
100
AcDbLine
 10
1719.482814101952
 20
1521.03452108111
 30
272.3935238164482
 11
1689.482814101948
 21
1521.034521081111
 31
272.3935238164328
  0
LINE
  5
577
330
1F
100
AcDbEntity
  8
EMNE
100
AcDbLine
 10
1709.482814101944
 20
1531.034521081096
 30
272.3935238164507
 11
1669.482814101944
 21
1531.034521081096
 31
272.393523816449
  0
LINE
  5
578
330
1F
100
AcDbEntity
  8
EMNE
100
AcDbLine
 10
1689.482814101955
 20
1531.034521081108
 30
272.3935238164526
 11
1719.482814101962
 21
1531.034521081108
 31
272.3935238164486
  0
LINE
  5
579
330
1F
100
AcDbEntity
  8
EMNE
100
AcDbLine
 10
1669.482814101944
 20
1531.034521081097
 30
272.3935238164489
 11
1669.482814101944
 21
1521.034521081099
 31
272.3935238164489
  0
LINE
  5
57A
330
1F
100
AcDbEntity
  8
MAAL
100
AcDbLine
 10
1830.48693209102
 20
1557.466500409512
 30
272.3935238164036
 11
1849.662835704659
 21
1531.034521081108
 31
272.3935238164027
  0
LINE
  5
57B
330
1F
100
AcDbEntity
  8
MAAL
100
AcDbLine
 10
1870.48693209102
 20
1557.466500409512
 30
272.3935238164027
 11
1889.662835704659
 21
1531.034521081108
 31
272.3935238164027
  0
LINE
  5
57C
330
1F
100
AcDbEntity
  8
MAAL
100
AcDbLine
 10
1790.48693209102
 20
1557.466500409514
 30
272.3935238164036
 11
1809.662835704659
 21
1531.034521081107
 31
272.3935238164027
  0
LINE
  5
57D
330
1F
100
AcDbEntity
  8
EMNE
100
AcDbLine
 10
1796.482814101966
 20
1521.034521081097
 30
272.3935238164486
 11
1839.482814101944
 21
1521.034521081096
 31
272.393523816448
  0
LINE
  5
57E
330
1F
100
AcDbEntity
  8
MAAL
100
AcDbLine
 10
1410.48693209102
 20
1807.375763978268
 30
272.3935238164495
 11
1429.662835704659
 21
1833.807743306675
 31
272.3935238164495
  0
LINE
  5
57F
330
1F
100
AcDbEntity
  8
EMNE
100
AcDbLine
 10
1086.482814101966
 20
1853.807743306673
 30
272.3935238164504
 11
1796.482814101966
 21
1853.807743306675
 31
272.3935238164477
  0
LINE
  5
580
330
1F
100
AcDbEntity
  8
MAAL
100
AcDbLine
 10
990.486932091022
 20
1807.375763978269
 30
272.3935238164503
 11
1009.662835704661
 21
1833.807743306676
 31
272.3935238164512
  0
LINE
  5
581
330
1F
100
AcDbEntity
  8
MAAL
100
AcDbLine
 10
1130.48693209102
 20
1807.375763978268
 30
272.3935238164504
 11
1149.662835704659
 21
1833.807743306673
 31
272.3935238164504
  0
LINE
  5
582
330
1F
100
AcDbEntity
  8
MAAL
100
AcDbLine
 10
1170.48693209102
 20
1807.375763978268
 30
272.3935238164495
 11
1189.662835704659
 21
1833.807743306675
 31
272.3935238164504
  0
LINE
  5
583
330
1F
100
AcDbEntity
  8
MAAL
100
AcDbLine
 10
1210.48693209102
 20
1807.375763978268
 30
272.3935238164495
 11
1229.662835704659
 21
1833.807743306675
 31
272.3935238164504
  0
LINE
  5
584
330
1F
100
AcDbEntity
  8
MAAL
100
AcDbLine
 10
1250.48693209102
 20
1807.375763978268
 30
272.3935238164495
 11
1269.662835704659
 21
1833.807743306675
 31
272.3935238164513
  0
LINE
  5
585
330
1F
100
AcDbEntity
  8
MAAL
100
AcDbLine
 10
1290.48693209102
 20
1807.375763978268
 30
272.3935238164495
 11
1309.662835704659
 21
1833.807743306675
 31
272.3935238164504
  0
LINE
  5
586
330
1F
100
AcDbEntity
  8
MAAL
100
AcDbLine
 10
1330.48693209102
 20
1807.375763978268
 30
272.3935238164486
 11
1349.662835704659
 21
1833.807743306675
 31
272.3935238164495
  0
LINE
  5
587
330
1F
100
AcDbEntity
  8
MAAL
100
AcDbLine
 10
1370.48693209102
 20
1807.375763978268
 30
272.3935238164486
 11
1389.662835704659
 21
1833.807743306675
 31
272.3935238164495
  0
LINE
  5
588
330
1F
100
AcDbEntity
  8
MAAL
100
AcDbLine
 10
1090.48693209102
 20
1807.375763978268
 30
272.3935238164504
 11
1109.662835704659
 21
1833.807743306675
 31
272.3935238164513
  0
LINE
  5
589
330
1F
100
AcDbEntity
  8
MAAL
100
AcDbLine
 10
1130.48693209102
 20
1807.375763978268
 30
272.3935238164495
 11
1149.662835704659
 21
1833.807743306675
 31
272.3935238164495
  0
LINE
  5
58A
330
1F
100
AcDbEntity
  8
MAAL
100
AcDbLine
 10
1050.48693209102
 20
1807.37576397827
 30
272.3935238164504
 11
1069.662835704659
 21
1833.807743306675
 31
272.3935238164513
  0
LINE
  5
58B
330
1F
100
AcDbEntity
  8
EMNE
100
AcDbLine
 10
1190.10216476465
 20
1833.807743306673
 30
272.3935238164504
 11
1222.10216476465
 21
1833.807743306673
 31
272.3935238164504
  0
LINE
  5
58C
330
1F
100
AcDbEntity
  8
EMNE
100
AcDbLine
 10
1166.48281410197
 20
1848.807743306671
 30
272.3935238164513
 11
1144.48281410197
 21
1848.807743306669
 31
272.3935238164504
  0
LINE
  5
58D
330
1F
100
AcDbEntity
  8
EMNE
100
AcDbLine
 10
1144.48281410197
 20
1853.807743306671
 30
272.3935238164513
 11
1144.48281410197
 21
1848.807743306671
 31
272.3935238164513
  0
LINE
  5
58E
330
1F
100
AcDbEntity
  8
EMNE
100
AcDbLine
 10
1171.482814101969
 20
1841.807743306673
 30
272.3935238164504
 11
1171.482814101969
 21
1833.807743306675
 31
272.3935238164504
  0
LINE
  5
58F
330
1F
100
AcDbEntity
  8
EMNE
100
AcDbLine
 10
1139.482814101969
 20
1841.807743306673
 30
272.3935238164504
 11
1139.482814101969
 21
1833.807743306673
 31
272.3935238164513
  0
LINE
  5
590
330
1F
100
AcDbEntity
  8
EMNE
100
AcDbLine
 10
1139.482814101969
 20
1833.807743306673
 30
272.3935238164513
 11
1171.482814101969
 21
1833.807743306675
 31
272.3935238164504
  0
LINE
  5
591
330
1F
100
AcDbEntity
  8
EMNE
100
AcDbLine
 10
1139.482814101969
 20
1841.807743306673
 30
272.3935238164504
 11
1171.482814101969
 21
1841.807743306673
 31
272.3935238164504
  0
LINE
  5
592
330
1F
100
AcDbEntity
  8
EMNE
100
AcDbLine
 10
1160.48281410197
 20
1853.807743306673
 30
272.3935238164504
 11
1160.48281410197
 21
1841.807743306673
 31
272.3935238164504
  0
LINE
  5
593
330
1F
100
AcDbEntity
  8
EMNE
100
AcDbLine
 10
1150.48281410197
 20
1853.807743306673
 30
272.3935238164513
 11
1150.48281410197
 21
1841.807743306673
 31
272.3935238164504
  0
LINE
  5
594
330
1F
100
AcDbEntity
  8
EMNE
100
AcDbLine
 10
1166.48281410197
 20
1853.807743306671
 30
272.3935238164513
 11
1166.48281410197
 21
1848.807743306671
 31
272.3935238164513
  0
LINE
  5
595
330
1F
100
AcDbEntity
  8
MAAL
100
AcDbLine
 10
1650.48693209102
 20
1807.37576397827
 30
272.3935238164486
 11
1669.662835704659
 21
1833.807743306677
 31
272.3935238164486
  0
LINE
  5
596
330
1F
100
AcDbEntity
  8
MAAL
100
AcDbLine
 10
1450.48693209102
 20
1807.37576397827
 30
272.3935238164495
 11
1469.662835704659
 21
1833.807743306675
 31
272.3935238164495
  0
LINE
  5
597
330
1F
100
AcDbEntity
  8
MAAL
100
AcDbLine
 10
1490.48693209102
 20
1807.375763978268
 30
272.3935238164495
 11
1509.662835704659
 21
1833.807743306677
 31
272.3935238164495
  0
LINE
  5
598
330
1F
100
AcDbEntity
  8
MAAL
100
AcDbLine
 10
1530.48693209102
 20
1807.37576397827
 30
272.3935238164495
 11
1549.662835704659
 21
1833.807743306677
 31
272.3935238164486
  0
LINE
  5
599
330
1F
100
AcDbEntity
  8
MAAL
100
AcDbLine
 10
1570.48693209102
 20
1807.37576397827
 30
272.3935238164486
 11
1589.662835704659
 21
1833.807743306677
 31
272.3935238164486
  0
LINE
  5
59A
330
1F
100
AcDbEntity
  8
MAAL
100
AcDbLine
 10
1610.48693209102
 20
1807.37576397827
 30
272.3935238164486
 11
1629.662835704659
 21
1833.807743306677
 31
272.3935238164486
  0
LINE
  5
59B
330
1F
100
AcDbEntity
  8
MAAL
100
AcDbLine
 10
1730.48693209102
 20
1807.37576397827
 30
272.3935238164495
 11
1749.662835704659
 21
1833.807743306677
 31
272.3935238164477
  0
LINE
  5
59C
330
1F
100
AcDbEntity
  8
MAAL
100
AcDbLine
 10
1770.48693209102
 20
1807.37576397827
 30
272.3935238164486
 11
1789.662835704659
 21
1833.807743306677
 31
272.3935238164477
  0
LINE
  5
59D
330
1F
100
AcDbEntity
  8
MAAL
100
AcDbLine
 10
1810.48693209102
 20
1807.375763978272
 30
272.3935238164486
 11
1829.662835704659
 21
1833.807743306677
 31
272.3935238164477
  0
LINE
  5
59E
330
1F
100
AcDbEntity
  8
MAAL
100
AcDbLine
 10
1870.48693209102
 20
1807.375763978272
 30
272.3935238164477
 11
1889.662835704659
 21
1833.807743306677
 31
272.3935238164477
  0
LINE
  5
59F
330
1F
100
AcDbEntity
  8
MAAL
100
AcDbLine
 10
1690.48693209102
 20
1807.37576397827
 30
272.3935238164486
 11
1709.662835704659
 21
1833.807743306677
 31
272.3935238164486
  0
LINE
  5
5A0
330
1F
100
AcDbEntity
  8
EMNE
100
AcDbLine
 10
1762.102164764654
 20
1833.807743306689
 30
272.3935238164486
 11
1794.10216476465
 21
1833.807743306689
 31
272.3935238164486
  0
LINE
  5
5A1
330
1F
100
AcDbEntity
  8
EMNE
100
AcDbLine
 10
1716.48281410197
 20
1853.807743306679
 30
272.3935238164513
 11
1716.48281410197
 21
1848.807743306679
 31
272.3935238164504
  0
LINE
  5
5A2
330
1F
100
AcDbEntity
  8
EMNE
100
AcDbLine
 10
1738.48281410197
 20
1853.807743306679
 30
272.3935238164513
 11
1738.48281410197
 21
1848.807743306679
 31
272.3935238164513
  0
LINE
  5
5A3
330
1F
100
AcDbEntity
  8
EMNE
100
AcDbLine
 10
1716.48281410197
 20
1848.807743306679
 30
272.3935238164504
 11
1738.48281410197
 21
1848.807743306677
 31
272.3935238164504
  0
LINE
  5
5A4
330
1F
100
AcDbEntity
  8
EMNE
100
AcDbLine
 10
1743.48281410197
 20
1833.807743306681
 30
272.3935238164486
 11
1711.48281410197
 21
1833.807743306681
 31
272.3935238164486
  0
LINE
  5
5A5
330
1F
100
AcDbEntity
  8
EMNE
100
AcDbLine
 10
1743.48281410197
 20
1841.80774330668
 30
272.3935238164486
 11
1743.48281410197
 21
1833.807743306681
 31
272.3935238164486
  0
LINE
  5
5A6
330
1F
100
AcDbEntity
  8
EMNE
100
AcDbLine
 10
1743.48281410197
 20
1841.80774330668
 30
272.3935238164486
 11
1711.48281410197
 21
1841.80774330668
 31
272.3935238164495
  0
LINE
  5
5A7
330
1F
100
AcDbEntity
  8
EMNE
100
AcDbLine
 10
1711.48281410197
 20
1841.80774330668
 30
272.3935238164495
 11
1711.48281410197
 21
1833.807743306681
 31
272.3935238164486
  0
LINE
  5
5A8
330
1F
100
AcDbEntity
  8
EMNE
100
AcDbLine
 10
1722.48281410197
 20
1853.807743306681
 30
272.3935238164495
 11
1722.48281410197
 21
1841.80774330668
 31
272.3935238164495
  0
LINE
  5
5A9
330
1F
100
AcDbEntity
  8
EMNE
100
AcDbLine
 10
1732.48281410197
 20
1853.807743306681
 30
272.3935238164495
 11
1732.48281410197
 21
1841.807743306682
 31
272.3935238164495
  0
LINE
  5
5AA
330
1F
100
AcDbEntity
  8
MAAL
100
AcDbLine
 10
1990.48693209102
 20
1557.466500409513
 30
272.3935238164028
 11
2009.662835704659
 21
1531.034521081109
 31
272.3935238164019
  0
LINE
  5
5AB
330
1F
100
AcDbEntity
  8
MAAL
100
AcDbLine
 10
1950.48693209102
 20
1557.466500409514
 30
272.3935238164028
 11
1969.662835704659
 21
1531.034521081108
 31
272.3935238164019
  0
LINE
  5
5AC
330
1F
100
AcDbEntity
  8
MAAL
100
AcDbLine
 10
1910.48693209102
 20
1557.466500409514
 30
272.3935238164028
 11
1929.662835704659
 21
1531.034521081108
 31
272.3935238164019
  0
LINE
  5
5AD
330
1F
100
AcDbEntity
  8
MAAL
100
AcDbLine
 10
1990.48693209102
 20
1807.375763978273
 30
272.3935238164478
 11
2009.662835704659
 21
1833.807743306678
 31
272.3935238164469
  0
LINE
  5
5AE
330
1F
100
AcDbEntity
  8
MAAL
100
AcDbLine
 10
1950.48693209102
 20
1807.375763978271
 30
272.3935238164478
 11
1969.662835704659
 21
1833.807743306678
 31
272.3935238164469
  0
LINE
  5
5AF
330
1F
100
AcDbEntity
  8
MAAL
100
AcDbLine
 10
1910.48693209102
 20
1807.375763978271
 30
272.3935238164478
 11
1929.662835704659
 21
1833.807743306678
 31
272.3935238164469
  0
DIMENSION
  5
5B0
330
1F
100
AcDbEntity
  8
MAAL
  6
Continuous
100
AcDbDimension
  2
*D16
 10
1796.482814101966
 20
3081.839846929371
 30
0.0
 11
1441.482814101966
 21
3114.339846929371
 31
0.0
 70
    32
  1
<>0
 71
     5
 42
71.0
  3
ROPOX
100
AcDbAlignedDimension
 13
1086.482814101966
 23
2968.307743306659
 33
272.3935238164516
 14
1796.482814101966
 24
2968.307743306663
 34
272.3935238164477
100
AcDbRotatedDimension
1001
ACAD
1000
DSTYLE
1002
{
1070
   144
1040
0.1
1002
}
  0
LINE
  5
5B1
330
1F
100
AcDbEntity
  8
EMNE
100
AcDbLine
 10
1796.482814101966
 20
2133.807743306677
 30
272.3935238164477
 11
1796.482814101966
 21
2968.307743306663
 31
272.3935238164477
  0
LINE
  5
5B2
330
1F
100
AcDbEntity
  8
EMNE
100
AcDbLine
 10
1086.482814101966
 20
2968.307743306659
 30
272.3935238164516
 11
1086.482814101966
 21
2133.807743306674
 31
272.3935238164508
  0
LINE
  5
5B3
330
1F
100
AcDbEntity
  8
STIPLET
100
AcDbLine
 10
741.4828141019533
 20
2833.807743306673
 30
272.3935238164525
 11
2141.482814101955
 21
2833.807743306678
 31
272.393523816448
  0
LINE
  5
5B4
330
1F
100
AcDbEntity
  8
EMNE
100
AcDbLine
 10
768.9828141018897
 20
2063.807743307492
 30
272.3935238164489
 11
2113.982814101897
 21
2063.807743307495
 31
272.3935238164444
  0
LINE
  5
5B5
330
1F
100
AcDbEntity
  8
EMNE
100
AcDbLine
 10
741.4828141019552
 20
2113.807743306673
 30
272.3935238164525
 11
2141.482814101959
 21
2113.807743306678
 31
272.3935238164471
  0
LINE
  5
5B6
330
1F
100
AcDbEntity
  8
EMNE
100
AcDbLine
 10
768.9828141019479
 20
2113.807743307487
 30
272.3935238164553
 11
2113.982814101962
 21
2113.807743305862
 31
272.3935238164462
  0
LINE
  5
5B7
330
1F
100
AcDbEntity
  8
EMNE
100
AcDbLine
 10
741.4828141019552
 20
2133.807743306673
 30
272.3935238164525
 11
2141.482814101959
 21
2133.807743306678
 31
272.393523816448
  0
LINE
  5
5B8
330
1F
100
AcDbEntity
  8
STIPLET
100
AcDbLine
 10
768.9828141018879
 20
2763.807743307492
 30
272.3935238164489
 11
2113.982814101895
 21
2763.807743307495
 31
272.3935238164444
  0
LINE
  5
5B9
330
1F
100
AcDbEntity
  8
STIPLET
100
AcDbLine
 10
741.4828141019533
 20
2813.807743306673
 30
272.3935238164525
 11
2141.482814101955
 21
2813.807743306679
 31
272.3935238164471
  0
LINE
  5
5BA
330
1F
100
AcDbEntity
  8
STIPLET
100
AcDbLine
 10
768.9828141019461
 20
2813.807743307488
 30
272.3935238164553
 11
2113.98281410196
 21
2813.807743305862
 31
272.3935238164462
  0
LINE
  5
5BB
330
1F
100
AcDbEntity
  8
EMNE
100
AcDbLine
 10
768.9828141018897
 20
2063.807743307492
 30
272.3935238164489
 11
768.9828141019552
 21
2113.807743307486
 31
272.3935238164507
  0
LINE
  5
5BC
330
1F
100
AcDbEntity
  8
EMNE
100
AcDbLine
 10
788.9828141018897
 20
2063.807743307458
 30
272.3935238164462
 11
788.9828141019479
 21
2113.807743307461
 31
272.3935238164471
  0
LINE
  5
5BD
330
1F
100
AcDbEntity
  8
EMNE
100
AcDbLine
 10
741.4828141019552
 20
2133.807743306672
 30
272.3935238164525
 11
741.4828141019552
 21
2113.807743306672
 31
272.3935238164525
  0
POINT
  5
5BE
330
1F
100
AcDbEntity
  8
Defpoints
  6
ByBlock
 62
     0
100
AcDbPoint
 10
741.4828141019552
 20
2133.807743306673
 30
272.3935238164525
  0
LINE
  5
5BF
330
1F
100
AcDbEntity
  8
EMNE
100
AcDbLine
 10
1796.482814101966
 20
2018.807743306661
 30
272.3935238164486
 11
1086.482814101966
 21
2018.807743306657
 31
272.3935238164513
  0
LINE
  5
5C0
330
1F
100
AcDbEntity
  8
EMNE
100
AcDbLine
 10
1796.482814101966
 20
2018.807743306661
 30
272.3935238164486
 11
1086.482814101966
 21
2018.807743306657
 31
272.3935238164513
  0
LINE
  5
5C1
330
1F
100
AcDbEntity
  8
EMNE
100
AcDbLine
 10
1035.482814101959
 20
2063.80774330716
 30
272.393523816448
 11
1035.482814101962
 21
1963.80774330715
 31
272.3935238164489
  0
LINE
  5
5C2
330
1F
100
AcDbEntity
  8
EMNE
100
AcDbLine
 10
1043.482814101959
 20
2063.807743307151
 30
272.393523816448
 11
1043.482814101959
 21
1963.807743307148
 31
272.3935238164471
  0
LINE
  5
5C3
330
1F
100
AcDbEntity
  8
EMNE
100
AcDbLine
 10
1051.482814101962
 20
2063.80774330714
 30
272.393523816448
 11
1051.482814101959
 21
1983.807743307149
 31
272.3935238164471
  0
LINE
  5
5C4
330
1F
100
AcDbEntity
  8
EMNE
100
AcDbLine
 10
1043.482814101962
 20
1983.807743307131
 30
272.3935238164471
 11
1043.482814101959
 21
2063.807743307151
 31
272.3935238164471
  0
ARC
  5
5C5
330
1F
100
AcDbEntity
  8
EMNE
100
AcDbCircle
 10
1039.482814101997
 20
1974.642591917221
 30
272.3935238164362
 40
10.0
100
AcDbArc
 50
293.5781784779651
 51
66.42182152203492
  0
LINE
  5
5C6
330
1F
100
AcDbEntity
  8
EMNE
100
AcDbLine
 10
1025.482814101959
 20
1972.807743307162
 30
272.3935238164453
 11
1025.482814101959
 21
1988.807743307162
 31
272.3935238164435
  0
ARC
  5
5C7
330
1F
100
AcDbEntity
  8
EMNE
100
AcDbCircle
 10
1039.482814101997
 20
1974.642591917221
 30
272.3935238164362
 40
10.0
100
AcDbArc
 50
190.5728093003757
 51
246.4218215215799
  0
LINE
  5
5C8
330
1F
100
AcDbEntity
  8
EMNE
100
AcDbLine
 10
1043.482814101959
 20
1963.807743307149
 30
272.3935238164498
 11
1035.482814101962
 21
1963.80774330715
 31
272.3935238164489
  0
LINE
  5
5C9
330
1F
100
AcDbEntity
  8
EMNE
100
AcDbLine
 10
1035.482814101962
 20
1972.807743307163
 30
272.3935238164453
 11
1025.482814101959
 21
1972.807743307162
 31
272.3935238164453
  0
LINE
  5
5CA
330
1F
100
AcDbEntity
  8
EMNE
100
AcDbLine
 10
1086.482814101966
 20
1983.807743307131
 30
272.3935238164471
 11
1043.482814101962
 21
1983.807743307129
 31
272.393523816448
  0
LINE
  5
5CB
330
1F
100
AcDbEntity
  8
EMNE
100
AcDbLine
 10
1035.482814101959
 20
2011.807743307145
 30
272.3935238164462
 11
1021.482814101962
 21
2011.807743307145
 31
272.3935238164471
  0
LINE
  5
5CC
330
1F
100
AcDbEntity
  8
EMNE
100
AcDbLine
 10
1020.482814101962
 20
2010.807743307145
 30
272.393523816448
 11
1021.482814101962
 21
2011.807743307145
 31
272.3935238164471
  0
LINE
  5
5CD
330
1F
100
AcDbEntity
  8
EMNE
100
AcDbLine
 10
1035.482814101959
 20
2001.807743307144
 30
272.3935238164471
 11
1021.482814101962
 21
2001.807743307144
 31
272.3935238164471
  0
LINE
  5
5CE
330
1F
100
AcDbEntity
  8
EMNE
100
AcDbLine
 10
1020.482814101962
 20
2002.807743307144
 30
272.393523816448
 11
1021.482814101962
 21
2001.807743307144
 31
272.3935238164471
  0
LINE
  5
5CF
330
1F
100
AcDbEntity
  8
EMNE
100
AcDbLine
 10
1035.482814101959
 20
1988.807743307163
 30
272.3935238164453
 11
1025.482814101959
 21
1988.807743307162
 31
272.3935238164453
  0
LINE
  5
5D0
330
1F
100
AcDbEntity
  8
EMNE
100
AcDbLine
 10
1020.482814101962
 20
2010.807743307145
 30
272.393523816448
 11
1020.482814101962
 21
2002.807743307145
 31
272.393523816448
  0
LINE
  5
5D1
330
1F
100
AcDbEntity
  8
EMNE
100
AcDbLine
 10
1021.482814101962
 20
2011.807743307146
 30
272.3935238164471
 11
1021.482814101959
 21
2001.807743307146
 31
272.3935238164471
  0
LINE
  5
5D2
330
1F
100
AcDbEntity
  8
EMNE
100
AcDbLine
 10
1056.482814101893
 20
2063.807743307493
 30
272.3935238164466
 11
1056.482814101959
 21
2113.807743307487
 31
272.3935238164485
  0
LINE
  5
5D3
330
1F
100
AcDbEntity
  8
EMNE
100
AcDbLine
 10
1076.482814101893
 20
2063.807743307461
 30
272.3935238164439
 11
1076.482814101951
 21
2113.807743307463
 31
272.3935238164448
  0
LINE
  5
5D4
330
1F
100
AcDbEntity
  8
EMNE
100
AcDbLine
 10
1020.482814101944
 20
2063.807743307173
 30
272.3935238164444
 11
1020.482814101951
 21
2053.807743307131
 31
272.3935238164425
  0
LINE
  5
5D5
330
1F
100
AcDbEntity
  8
EMNE
100
AcDbLine
 10
1025.482814101944
 20
2063.807743307166
 30
272.3935238164462
 11
1025.482814101951
 21
2053.807743307135
 31
272.3935238164444
  0
LINE
  5
5D6
330
1F
100
AcDbEntity
  8
EMNE
100
AcDbLine
 10
1025.482814101951
 20
2053.807743307135
 30
272.3935238164444
 11
1020.482814101951
 21
2053.807743307131
 31
272.3935238164425
  0
LINE
  5
5D7
330
1F
100
AcDbEntity
  8
EMNE
100
AcDbLine
 10
1847.482814101966
 20
2063.807743306171
 30
272.3935238164444
 11
1847.482814101966
 21
1963.807743307153
 31
272.3935238164453
  0
LINE
  5
5D8
330
1F
100
AcDbEntity
  8
EMNE
100
AcDbLine
 10
1839.48281410197
 20
2063.80774330618
 30
272.3935238164453
 11
1839.48281410197
 21
1963.807743307151
 31
272.3935238164435
  0
LINE
  5
5D9
330
1F
100
AcDbEntity
  8
EMNE
100
AcDbLine
 10
1831.48281410197
 20
2063.80774330619
 30
272.3935238164453
 11
1831.48281410197
 21
1983.807743307136
 31
272.3935238164444
  0
LINE
  5
5DA
330
1F
100
AcDbEntity
  8
EMNE
100
AcDbLine
 10
1839.48281410197
 20
2063.80774330618
 30
272.3935238164435
 11
1839.48281410197
 21
1983.807743307136
 31
272.3935238164444
  0
ARC
  5
5DB
330
1F
100
AcDbEntity
  8
EMNE
100
AcDbCircle
 10
1843.48281410193
 20
1974.642591917205
 30
272.3935238164371
 40
10.0
100
AcDbArc
 50
113.5781784779737
 51
246.4218215220263
  0
LINE
  5
5DC
330
1F
100
AcDbEntity
  8
EMNE
100
AcDbLine
 10
1847.48281410197
 20
1988.807743307162
 30
272.3935238164407
 11
1847.48281410197
 21
1972.807743307161
 31
272.3935238164417
  0
LINE
  5
5DD
330
1F
100
AcDbEntity
  8
EMNE
100
AcDbLine
 10
1857.48281410197
 20
1972.807743307165
 30
272.3935238164425
 11
1857.48281410197
 21
1988.807743307166
 31
272.3935238164398
  0
LINE
  5
5DE
330
1F
100
AcDbEntity
  8
EMNE
100
AcDbLine
 10
1847.482814101966
 20
1972.807743307165
 30
272.3935238164425
 11
1857.48281410197
 21
1972.807743307165
 31
272.3935238164425
  0
ARC
  5
5DF
330
1F
100
AcDbEntity
  8
EMNE
100
AcDbCircle
 10
1843.48281410193
 20
1974.642591917205
 30
272.3935238164371
 40
10.0
100
AcDbArc
 50
293.5781784784112
 51
349.427190699717
  0
LINE
  5
5E0
330
1F
100
AcDbEntity
  8
EMNE
100
AcDbLine
 10
1839.48281410197
 20
1963.807743307151
 30
272.3935238164453
 11
1847.482814101966
 21
1963.807743307153
 31
272.3935238164453
  0
LINE
  5
5E1
330
1F
100
AcDbEntity
  8
EMNE
100
AcDbLine
 10
1847.482814101966
 20
2011.807743307139
 30
272.3935238164435
 11
1861.482814101966
 21
2011.807743307139
 31
272.3935238164444
  0
LINE
  5
5E2
330
1F
100
AcDbEntity
  8
EMNE
100
AcDbLine
 10
1862.482814101969
 20
2010.807743307139
 30
272.3935238164444
 11
1861.482814101966
 21
2011.807743307139
 31
272.3935238164444
  0
LINE
  5
5E3
330
1F
100
AcDbEntity
  8
EMNE
100
AcDbLine
 10
1847.48281410197
 20
1988.807743307166
 30
272.3935238164435
 11
1857.48281410197
 21
1988.807743307166
 31
272.3935238164417
  0
LINE
  5
5E4
330
1F
100
AcDbEntity
  8
EMNE
100
AcDbLine
 10
1847.482814101966
 20
2001.807743307139
 30
272.3935238164444
 11
1861.48281410197
 21
2001.807743307139
 31
272.3935238164444
  0
LINE
  5
5E5
330
1F
100
AcDbEntity
  8
EMNE
100
AcDbLine
 10
1862.482814101969
 20
2002.807743307139
 30
272.3935238164453
 11
1861.48281410197
 21
2001.807743307139
 31
272.3935238164444
  0
LINE
  5
5E6
330
1F
100
AcDbEntity
  8
EMNE
100
AcDbLine
 10
1796.482814101966
 20
1983.807743307135
 30
272.3935238164444
 11
1839.48281410197
 21
1983.807743307136
 31
272.3935238164444
  0
LINE
  5
5E7
330
1F
100
AcDbEntity
  8
EMNE
100
AcDbLine
 10
1861.48281410197
 20
2011.807743307139
 30
272.3935238164435
 11
1861.48281410197
 21
2001.807743307139
 31
272.3935238164435
  0
LINE
  5
5E8
330
1F
100
AcDbEntity
  8
EMNE
100
AcDbLine
 10
1862.482814101969
 20
2010.807743307139
 30
272.3935238164444
 11
1862.482814101969
 21
2002.807743307139
 31
272.3935238164453
  0
LINE
  5
5E9
330
1F
100
AcDbEntity
  8
EMNE
100
AcDbLine
 10
1826.482814101893
 20
2063.807743307495
 30
272.3935238164466
 11
1826.482814101835
 21
2113.807743307493
 31
272.3935238164439
  0
LINE
  5
5EA
330
1F
100
AcDbEntity
  8
EMNE
100
AcDbLine
 10
1806.482814101893
 20
2063.807743307469
 30
272.3935238164457
 11
1806.482814101835
 21
2113.807743307468
 31
272.3935238164457
  0
LINE
  5
5EB
330
1F
100
AcDbEntity
  8
EMNE
100
AcDbLine
 10
1857.482814101979
 20
2053.807743307117
 30
272.3935238164435
 11
1862.482814101979
 21
2053.807743307114
 31
272.3935238164453
  0
LINE
  5
5EC
330
1F
100
AcDbEntity
  8
EMNE
100
AcDbLine
 10
1857.48281410199
 20
2063.807743306165
 30
272.3935238164435
 11
1857.482814101979
 21
2053.807743307117
 31
272.3935238164435
  0
LINE
  5
5ED
330
1F
100
AcDbEntity
  8
EMNE
100
AcDbLine
 10
1862.48281410199
 20
2063.807743306163
 30
272.3935238164462
 11
1862.482814101979
 21
2053.807743307114
 31
272.3935238164453
  0
LINE
  5
5EE
330
1F
100
AcDbEntity
  8
EMNE
100
AcDbLine
 10
1796.482814101966
 20
2198.30774330666
 30
272.3935238164486
 11
1086.482814101966
 21
2198.307743306659
 31
272.3935238164504
  0
LINE
  5
5EF
330
1F
100
AcDbEntity
  8
STIPLET
100
AcDbLine
 10
788.9828141018879
 20
2763.807743307459
 30
272.3935238164462
 11
788.9828141019461
 21
2813.80774330746
 31
272.3935238164471
  0
LINE
  5
5F0
330
1F
100
AcDbEntity
  8
STIPLET
100
AcDbLine
 10
768.9828141018879
 20
2763.807743307492
 30
272.3935238164489
 11
768.9828141019534
 21
2813.807743307486
 31
272.3935238164507
  0
LINE
  5
5F1
330
1F
100
AcDbEntity
  8
STIPLET
100
AcDbLine
 10
741.4828141019533
 20
2833.807743306672
 30
272.3935238164525
 11
741.4828141019533
 21
2813.807743306672
 31
272.3935238164525
  0
LINE
  5
5F2
330
1F
100
AcDbEntity
  8
STIPLET
100
AcDbLine
 10
1035.482814101957
 20
2763.807743307161
 30
272.393523816448
 11
1035.48281410196
 21
2663.807743307151
 31
272.3935238164489
  0
LINE
  5
5F3
330
1F
100
AcDbEntity
  8
STIPLET
100
AcDbLine
 10
1043.482814101957
 20
2763.807743307151
 30
272.393523816448
 11
1043.482814101957
 21
2663.807743307149
 31
272.3935238164471
  0
LINE
  5
5F4
330
1F
100
AcDbEntity
  8
STIPLET
100
AcDbLine
 10
1051.48281410196
 20
2763.80774330714
 30
272.393523816448
 11
1051.482814101957
 21
2683.807743307149
 31
272.3935238164471
  0
LINE
  5
5F5
330
1F
100
AcDbEntity
  8
STIPLET
100
AcDbLine
 10
1043.48281410196
 20
2683.807743307131
 30
272.3935238164471
 11
1043.482814101957
 21
2763.807743307151
 31
272.3935238164471
  0
LINE
  5
5F6
330
1F
100
AcDbEntity
  8
STIPLET
100
AcDbLine
 10
1043.482814101957
 20
2663.807743307149
 30
272.3935238164498
 11
1035.48281410196
 21
2663.807743307151
 31
272.3935238164489
  0
LINE
  5
5F7
330
1F
100
AcDbEntity
  8
STIPLET
100
AcDbLine
 10
1086.482814101964
 20
2683.807743307131
 30
272.3935238164471
 11
1043.48281410196
 21
2683.807743307129
 31
272.393523816448
  0
LINE
  5
5F8
330
1F
100
AcDbEntity
  8
STIPLET
100
AcDbLine
 10
1076.482814101891
 20
2763.807743307461
 30
272.3935238164439
 11
1076.48281410195
 21
2813.807743307462
 31
272.3935238164448
  0
LINE
  5
5F9
330
1F
100
AcDbEntity
  8
STIPLET
100
AcDbLine
 10
1056.482814101891
 20
2763.807743307494
 30
272.3935238164466
 11
1056.482814101957
 21
2813.807743307488
 31
272.3935238164485
  0
LINE
  5
5FA
330
1F
100
AcDbEntity
  8
STIPLET
100
AcDbLine
 10
1847.482814101964
 20
2763.807743306171
 30
272.3935238164444
 11
1847.482814101964
 21
2663.807743307153
 31
272.3935238164453
  0
LINE
  5
5FB
330
1F
100
AcDbEntity
  8
STIPLET
100
AcDbLine
 10
1839.482814101968
 20
2763.80774330618
 30
272.3935238164453
 11
1839.482814101966
 21
2663.807743307151
 31
272.3935238164435
  0
LINE
  5
5FC
330
1F
100
AcDbEntity
  8
STIPLET
100
AcDbLine
 10
1831.482814101968
 20
2763.80774330619
 30
272.3935238164453
 11
1831.482814101968
 21
2683.807743307136
 31
272.3935238164444
  0
LINE
  5
5FD
330
1F
100
AcDbEntity
  8
STIPLET
100
AcDbLine
 10
1839.482814101968
 20
2763.80774330618
 30
272.3935238164435
 11
1839.482814101968
 21
2683.807743307137
 31
272.3935238164444
  0
LINE
  5
5FE
330
1F
100
AcDbEntity
  8
STIPLET
100
AcDbLine
 10
1847.482814101966
 20
2688.807743307162
 30
272.3935238164407
 11
1847.482814101966
 21
2672.807743307161
 31
272.3935238164417
  0
LINE
  5
5FF
330
1F
100
AcDbEntity
  8
STIPLET
100
AcDbLine
 10
1839.482814101966
 20
2663.807743307151
 30
272.3935238164453
 11
1847.482814101964
 21
2663.807743307153
 31
272.3935238164453
  0
LINE
  5
600
330
1F
100
AcDbEntity
  8
STIPLET
100
AcDbLine
 10
1796.482814101964
 20
2683.807743307135
 30
272.3935238164444
 11
1839.482814101968
 21
2683.807743307136
 31
272.3935238164444
  0
LINE
  5
601
330
1F
100
AcDbEntity
  8
STIPLET
100
AcDbLine
 10
1826.482814101892
 20
2763.807743307495
 30
272.3935238164466
 11
1826.482814101833
 21
2813.807743307492
 31
272.3935238164439
  0
LINE
  5
602
330
1F
100
AcDbEntity
  8
STIPLET
100
AcDbLine
 10
1806.482814101892
 20
2763.807743307469
 30
272.3935238164457
 11
1806.482814101833
 21
2813.807743307468
 31
272.3935238164457
  0
LINE
  5
603
330
1F
100
AcDbEntity
  8
MIDT
100
AcDbLine
 10
2053.564920179584
 20
2713.842296186534
 30
272.3935238164472
 11
2053.564920179588
 21
2191.475503035823
 31
272.393523816448
  0
LINE
  5
604
330
1F
100
AcDbEntity
  8
EMNE
100
AcDbLine
 10
2093.982814101897
 20
2063.807743307469
 30
272.3935238164435
 11
2093.982814101839
 21
2113.807743307468
 31
272.3935238164435
  0
LINE
  5
605
330
1F
100
AcDbEntity
  8
EMNE
100
AcDbLine
 10
2113.982814101897
 20
2063.807743307495
 30
272.3935238164444
 11
2113.982814101839
 21
2113.807743307493
 31
272.3935238164417
  0
LINE
  5
606
330
1F
100
AcDbEntity
  8
EMNE
100
AcDbLine
 10
2141.482814101959
 20
2133.807743306678
 30
272.393523816448
 11
2141.482814101959
 21
2113.807743306678
 31
272.3935238164471
  0
INSERT
  5
607
330
1F
100
AcDbEntity
  8
EMNE
100
AcDbBlockReference
  2
*X4
 10
-2053.56492017957
 20
2191.475503035897
 30
-272.3935238164472
 41
19.99999999999997
 42
20.0
 43
-20.0
 50
270.1282712390458
210
0.0
220
0.0
230
-1.0
1001
ACAD
1000
HATCH
1002
{
1070
    16
1000
LINE
1040
1.0
1040
0.0
1002
}
  0
LINE
  5
608
330
1F
100
AcDbEntity
  8
EMNE
100
AcDbLine
 10
2053.56492017957
 20
2191.475503035897
 30
272.3935238164472
 11
2041.65037287065
 21
2259.800972408557
 31
272.3935238164472
  0
LINE
  5
609
330
1F
100
AcDbEntity
  8
EMNE
100
AcDbLine
 10
2053.56492017957
 20
2191.475503035897
 30
272.3935238164472
 11
2065.100899512536
 21
2259.748472326357
 31
272.3935238164472
  0
INSERT
  5
60A
330
1F
100
AcDbEntity
  8
EMNE
100
AcDbBlockReference
  2
*X4
 10
2053.564920179573
 20
2713.842296186458
 30
272.3935238164472
 41
19.99999999999997
 42
20.0
 43
20.0
 50
90.12827123904582
1001
ACAD
1000
HATCH
1002
{
1070
    16
1000
LINE
1040
1.0
1040
0.0
1002
}
  0
LINE
  5
60B
330
1F
100
AcDbEntity
  8
EMNE
100
AcDbLine
 10
2053.56492017957
 20
2713.84229618646
 30
272.3935238164472
 11
2041.650372870648
 21
2645.5168268138
 31
272.3935238164472
  0
LINE
  5
60C
330
1F
100
AcDbEntity
  8
EMNE
100
AcDbLine
 10
2053.56492017957
 20
2713.84229618646
 30
272.3935238164472
 11
2065.100899512536
 21
2645.569326895999
 31
272.3935238164472
  0
LINE
  5
60D
330
1F
100
AcDbEntity
  8
STIPLET
100
AcDbLine
 10
2093.982814101895
 20
2763.80774330747
 30
272.3935238164435
 11
2093.982814101837
 21
2813.807743307468
 31
272.3935238164435
  0
LINE
  5
60E
330
1F
100
AcDbEntity
  8
STIPLET
100
AcDbLine
 10
2113.982814101895
 20
2763.807743307495
 30
272.3935238164444
 11
2113.982814101837
 21
2813.807743307494
 31
272.3935238164417
  0
LINE
  5
60F
330
1F
100
AcDbEntity
  8
STIPLET
100
AcDbLine
 10
2141.482814101955
 20
2833.807743306678
 30
272.393523816448
 11
2141.482814101955
 21
2813.807743306679
 31
272.3935238164471
  0
LINE
  5
610
330
1F
100
AcDbEntity
  8
EMNE
100
AcDbLine
 10
1786.482814101966
 20
2978.307743306663
 30
272.3935238164486
 11
1096.482814101966
 21
2978.307743306659
 31
272.3935238164514
  0
ARC
  5
611
330
1F
100
AcDbEntity
  8
EMNE
100
AcDbCircle
 10
1096.482814101966
 20
2968.307743306653
 30
272.3935238164829
 40
10.0
100
AcDbArc
 50
90.0
 51
180.0
  0
ARC
  5
612
330
1F
100
AcDbEntity
  8
EMNE
100
AcDbCircle
 10
1786.482814101941
 20
2968.307743306663
 30
272.3935238165574
 40
10.0
100
AcDbArc
 50
0.0
 51
90.0
  0
DIMENSION
  5
613
330
1F
100
AcDbEntity
  8
MAAL
  6
Continuous
100
AcDbDimension
  2
*D17
 10
2706.407481915436
 20
2830.807743306653
 30
0.0
 11
2673.907481915435
 21
2332.307743306675
 31
0.0
 70
    32
  1
1000
 71
     5
 42
99.69999999999568
  3
ROPOX
100
AcDbAlignedDimension
 13
2827.608283638469
 23
1833.807743306695
 33
272.3935238164262
 14
2947.108283638469
 24
2830.807743306653
 34
272.3935238164426
 50
90.0
100
AcDbRotatedDimension
1001
ACAD
1000
DSTYLE
1002
{
1070
   144
1040
0.1
1002
}
  0
LINE
  5
614
330
1F
100
AcDbEntity
  8
EMNE
100
AcDbLine
 10
2827.608283638469
 20
3107.219467191594
 30
272.393523816444
 11
2827.608283638469
 21
1833.807743306695
 31
272.3935238164448
  0
DIMENSION
  5
615
330
1F
100
AcDbEntity
  8
MAAL
  6
Continuous
100
AcDbDimension
  2
*D18
 10
2566.815578511449
 20
1833.807743306695
 30
-0.0000000000006821
 11
2566.815578511449
 21
2408.307743306666
 31
-0.0000000000006821
 70
   160
  1
1140
 71
     5
 42
114.1999999999969
  3
ROPOX
100
AcDbAlignedDimension
 13
2827.608283638469
 23
2975.807743306665
 33
272.3935238164426
 14
2827.608283638469
 24
1833.807743306695
 34
272.3935238164448
 50
90.0
100
AcDbRotatedDimension
1001
ACAD
1000
DSTYLE
1002
{
1070
   144
1040
0.1
1002
}
  0
LINE
  5
616
330
1F
100
AcDbEntity
  8
EMNE
100
AcDbLine
 10
2967.108283638465
 20
1853.807743306658
 30
272.3935238164473
 11
2967.108283638465
 21
1965.807743306649
 31
272.3935238164471
  0
LINE
  5
617
330
1F
100
AcDbEntity
  8
EMNE
100
AcDbLine
 10
2827.608283638465
 20
1950.807743306665
 30
272.3935238164468
 11
2827.608283638465
 21
1900.807743306666
 31
272.3935238164462
  0
LINE
  5
618
330
1F
100
AcDbEntity
  8
EMNE
100
AcDbLine
 10
2830.608283638465
 20
1950.807743306665
 30
272.3935238164468
 11
2830.608283638465
 21
1903.807743306665
 31
272.3935238164467
  0
LINE
  5
619
330
1F
100
AcDbEntity
  8
EMNE
100
AcDbLine
 10
2851.108283638462
 20
1853.807743306656
 30
272.3935238164453
 11
2851.108283638462
 21
1985.807743306666
 31
272.3935238164459
  0
LINE
  5
61A
330
1F
100
AcDbEntity
  8
EMNE
100
AcDbLine
 10
2837.608283638468
 20
2180.807743306663
 30
272.3935238164452
 11
2837.608283638461
 21
1910.807743306665
 31
272.3935238164447
  0
LINE
  5
61B
330
1F
100
AcDbEntity
  8
EMNE
100
AcDbLine
 10
2827.608283638469
 20
1833.807743306695
 30
272.3935238164262
 11
3743.433715170655
 21
1833.807743306683
 31
272.393523816442
  0
LINE
  5
61C
330
1F
100
AcDbEntity
  8
MAAL
100
AcDbLine
 10
3448.43238002483
 20
1807.375763978291
 30
272.3935238164222
 11
3467.608283638469
 21
1833.807743306699
 31
272.3935238164222
  0
LINE
  5
61D
330
1F
100
AcDbEntity
  8
MAAL
100
AcDbLine
 10
2928.432380024833
 20
1807.375763978292
 30
272.3935238164238
 11
2947.608283638473
 21
1833.807743306699
 31
272.393523816423
  0
LINE
  5
61E
330
1F
100
AcDbEntity
  8
MAAL
100
AcDbLine
 10
2968.432380024833
 20
1807.375763978292
 30
272.393523816423
 11
2987.608283638472
 21
1833.807743306699
 31
272.3935238164238
  0
LINE
  5
61F
330
1F
100
AcDbEntity
  8
MAAL
100
AcDbLine
 10
2888.432380024833
 20
1807.375763978292
 30
272.3935238164238
 11
2907.608283638472
 21
1833.807743306699
 31
272.3935238164238
  0
LINE
  5
620
330
1F
100
AcDbEntity
  8
MAAL
100
AcDbLine
 10
2848.432380024833
 20
1807.375763978294
 30
272.3935238164238
 11
2867.608283638472
 21
1833.807743306701
 31
272.3935238164238
  0
LINE
  5
621
330
1F
100
AcDbEntity
  8
EMNE
100
AcDbLine
 10
2842.608283638465
 20
1900.807743306661
 30
272.3935238164443
 11
2842.608283638465
 21
1860.807743306666
 31
272.3935238164444
  0
LINE
  5
622
330
1F
100
AcDbEntity
  8
EMNE
100
AcDbLine
 10
2967.108283638465
 20
1853.807743306656
 30
272.3935238164475
 11
2851.108283638462
 21
1853.807743306657
 31
272.3935238164457
  0
LINE
  5
623
330
1F
100
AcDbEntity
  8
EMNE
100
AcDbLine
 10
2842.608283638465
 20
1860.807743306666
 30
272.3935238164448
 11
2851.108283638462
 21
1860.807743306666
 31
272.3935238164463
  0
LINE
  5
624
330
1F
100
AcDbEntity
  8
EMNE
100
AcDbLine
 10
2842.608283638465
 20
1910.807743306664
 30
272.3935238164443
 11
2842.608283638465
 21
1903.807743306665
 31
272.3935238164443
  0
LINE
  5
625
330
1F
100
AcDbEntity
  8
EMNE
100
AcDbLine
 10
2842.608283638465
 20
1900.807743306666
 30
272.393523816446
 11
2851.108283638462
 21
1900.807743306666
 31
272.3935238164447
  0
LINE
  5
626
330
1F
100
AcDbEntity
  8
EMNE
100
AcDbLine
 10
2851.108283638462
 20
1910.807743306664
 30
272.3935238164445
 11
2837.608283638465
 21
1910.807743306663
 31
272.3935238164466
  0
LINE
  5
627
330
1F
100
AcDbEntity
  8
MAAL
100
AcDbLine
 10
2801.176304310067
 20
1901.631839693031
 30
272.3935238164425
 11
2827.608283638476
 21
1920.80774330667
 31
272.3935238164425
  0
LINE
  5
628
330
1F
100
AcDbEntity
  8
EMNE
100
AcDbLine
 10
2827.608283638469
 20
1900.807743306662
 30
272.3935238164472
 11
2851.108283638462
 21
1900.807743306661
 31
272.3935238164468
  0
LINE
  5
629
330
1F
100
AcDbEntity
  8
EMNE
100
AcDbLine
 10
2851.108283638462
 20
1903.807743306665
 30
272.3935238164472
 11
2830.608283638465
 21
1903.807743306665
 31
272.3935238164467
  0
LINE
  5
62A
330
1F
100
AcDbEntity
  8
MAAL
100
AcDbLine
 10
3408.432380024829
 20
1807.375763978293
 30
272.3935238164222
 11
3427.608283638469
 21
1833.807743306698
 31
272.3935238164222
  0
LINE
  5
62B
330
1F
100
AcDbEntity
  8
MAAL
100
AcDbLine
 10
3368.43238002483
 20
1807.375763978291
 30
272.3935238164222
 11
3387.608283638468
 21
1833.807743306698
 31
272.3935238164222
  0
LINE
  5
62C
330
1F
100
AcDbEntity
  8
MAAL
100
AcDbLine
 10
3248.43238002483
 20
1807.375763978291
 30
272.3935238164222
 11
3267.608283638469
 21
1833.807743306698
 31
272.393523816423
  0
LINE
  5
62D
330
1F
100
AcDbEntity
  8
MAAL
100
AcDbLine
 10
3288.43238002483
 20
1807.375763978291
 30
272.3935238164212
 11
3307.608283638469
 21
1833.807743306698
 31
272.3935238164222
  0
LINE
  5
62E
330
1F
100
AcDbEntity
  8
MAAL
100
AcDbLine
 10
3328.43238002483
 20
1807.375763978291
 30
272.3935238164212
 11
3347.608283638468
 21
1833.807743306698
 31
272.3935238164222
  0
LINE
  5
62F
330
1F
100
AcDbEntity
  8
MAAL
100
AcDbLine
 10
3128.432380024829
 20
1807.375763978291
 30
272.3935238164222
 11
3147.608283638469
 21
1833.807743306698
 31
272.393523816423
  0
LINE
  5
630
330
1F
100
AcDbEntity
  8
MAAL
100
AcDbLine
 10
3168.432380024829
 20
1807.375763978291
 30
272.3935238164222
 11
3187.608283638469
 21
1833.807743306698
 31
272.393523816423
  0
LINE
  5
631
330
1F
100
AcDbEntity
  8
MAAL
100
AcDbLine
 10
3008.43238002483
 20
1807.375763978293
 30
272.393523816423
 11
3027.608283638469
 21
1833.807743306698
 31
272.393523816424
  0
LINE
  5
632
330
1F
100
AcDbEntity
  8
MAAL
100
AcDbLine
 10
3048.432380024829
 20
1807.375763978291
 30
272.393523816423
 11
3067.608283638469
 21
1833.807743306698
 31
272.393523816424
  0
LINE
  5
633
330
1F
100
AcDbEntity
  8
MAAL
100
AcDbLine
 10
3088.43238002483
 20
1807.375763978291
 30
272.393523816423
 11
3107.608283638469
 21
1833.807743306696
 31
272.393523816423
  0
LINE
  5
634
330
1F
100
AcDbEntity
  8
MAAL
100
AcDbLine
 10
3088.43238002483
 20
1807.375763978291
 30
272.3935238164222
 11
3107.608283638469
 21
1833.807743306698
 31
272.3935238164222
  0
LINE
  5
635
330
1F
100
AcDbEntity
  8
MAAL
100
AcDbLine
 10
3208.432380024829
 20
1807.375763978291
 30
272.3935238164222
 11
3227.608283638469
 21
1833.807743306698
 31
272.393523816424
  0
LINE
  5
636
330
1F
100
AcDbEntity
  8
MAAL
100
AcDbLine
 10
3608.432380024829
 20
1807.375763978293
 30
272.3935238164212
 11
3627.608283638469
 21
1833.807743306699
 31
272.3935238164212
  0
LINE
  5
637
330
1F
100
AcDbEntity
  8
MAAL
100
AcDbLine
 10
3648.43238002483
 20
1807.375763978293
 30
272.3935238164212
 11
3667.608283638469
 21
1833.807743306699
 31
272.3935238164212
  0
LINE
  5
638
330
1F
100
AcDbEntity
  8
MAAL
100
AcDbLine
 10
3608.432380024829
 20
1807.375763978293
 30
272.3935238164212
 11
3627.608283638469
 21
1833.807743306699
 31
272.3935238164212
  0
LINE
  5
639
330
1F
100
AcDbEntity
  8
MAAL
100
AcDbLine
 10
3528.43238002483
 20
1807.375763978293
 30
272.3935238164212
 11
3547.608283638469
 21
1833.807743306699
 31
272.3935238164212
  0
LINE
  5
63A
330
1F
100
AcDbEntity
  8
MAAL
100
AcDbLine
 10
3488.43238002483
 20
1807.375763978293
 30
272.3935238164222
 11
3507.608283638468
 21
1833.807743306699
 31
272.3935238164212
  0
LINE
  5
63B
330
1F
100
AcDbEntity
  8
MAAL
100
AcDbLine
 10
3568.432380024829
 20
1807.375763978293
 30
272.3935238164212
 11
3587.608283638469
 21
1833.807743306699
 31
272.3935238164212
  0
DIMENSION
  5
63C
330
1F
100
AcDbEntity
  8
MAAL
  6
Continuous
100
AcDbDimension
  2
*D19
 10
2917.608283638472
 20
3055.731221861408
 30
-0.0000000000006821
 11
3005.108283638473
 21
3088.231221861409
 31
-0.0000000000006821
 70
    32
  1
100
 71
     5
 42
9.000000000000364
  3
ROPOX
100
AcDbAlignedDimension
 13
2827.608283638469
 23
3107.219467191594
 33
272.393523816444
 14
2917.608283638472
 24
2968.307743306668
 34
272.3935238164316
100
AcDbRotatedDimension
1001
ACAD
1000
DSTYLE
1002
{
1070
   144
1040
0.1
1002
}
  0
ARC
  5
63D
330
1F
100
AcDbEntity
  8
MIDT
100
AcDbCircle
 10
2980.108283638472
 20
2103.307743306657
 30
272.393523816456
 40
728.7250853373908
100
AcDbArc
 50
6.435349412660643
 51
82.63644412103362
  0
LINE
  5
63E
330
1F
100
AcDbEntity
  8
EMNE
100
AcDbLine
 10
2917.608283638465
 20
2198.307743306666
 30
272.393523816446
 11
2917.608283638469
 21
2968.307743306669
 31
272.3935238164446
  0
LINE
  5
63F
330
1F
100
AcDbEntity
  8
EMNE
100
AcDbLine
 10
2842.608283638476
 20
2955.807743306667
 30
272.3935238164428
 11
2842.608283638465
 21
2180.807743306663
 31
272.3935238164439
  0
LINE
  5
640
330
1F
100
AcDbEntity
  8
EMNE
100
AcDbLine
 10
2852.608283638465
 20
2198.307743306667
 30
272.3935238164465
 11
2852.608283638465
 21
2975.807743306669
 31
272.3935238164425
  0
LINE
  5
641
330
1F
100
AcDbEntity
  8
EMNE
100
AcDbLine
 10
3708.108283638465
 20
2115.807743306667
 30
272.3935238164433
 11
3008.108283638465
 21
2115.807743306668
 31
272.3935238164433
  0
LINE
  5
642
330
1F
100
AcDbEntity
  8
EMNE
100
AcDbLine
 10
3708.108283638465
 20
2135.80774330667
 30
272.3935238164433
 11
3008.108283638465
 21
2135.80774330667
 31
272.3935238164448
  0
LINE
  5
643
330
1F
100
AcDbEntity
  8
EMNE
100
AcDbLine
 10
3603.108283638465
 20
2065.807743306663
 30
272.3935238164443
 11
3002.608283638476
 21
2065.807743306664
 31
272.3935238164453
  0
LINE
  5
644
330
1F
100
AcDbEntity
  8
EMNE
100
AcDbLine
 10
3603.108283638465
 20
2115.807743306662
 30
272.3935238164436
 11
2998.816570572335
 21
2115.807743306663
 31
272.3935238164441
  0
LINE
  5
645
330
1F
100
AcDbEntity
  8
STIPLET
100
AcDbLine
 10
2967.108283638472
 20
2830.807743306653
 30
272.393523816444
 11
2967.108283638472
 21
2125.807743306666
 31
272.3935238164447
  0
LINE
  5
646
330
1F
100
AcDbEntity
  8
STIPLET
100
AcDbLine
 10
3017.108283638473
 20
2725.807743306651
 30
272.3935238164442
 11
3017.108283638473
 21
2045.807743306667
 31
272.393523816446
  0
LINE
  5
647
330
1F
100
AcDbEntity
  8
STIPLET
100
AcDbLine
 10
2947.108283638469
 20
2830.807743306653
 30
272.3935238164426
 11
2947.108283638469
 21
2130.80774330665
 31
272.3935238164466
  0
LINE
  5
648
330
1F
100
AcDbEntity
  8
MAAL
100
AcDbLine
 10
2801.176304310067
 20
2381.631839693029
 30
272.3935238164408
 11
2827.608283638472
 21
2400.807743306669
 31
272.3935238164408
  0
LINE
  5
649
330
1F
100
AcDbEntity
  8
MAAL
100
AcDbLine
 10
2801.176304310067
 20
2141.63183969303
 30
272.3935238164408
 11
2827.608283638472
 21
2160.807743306668
 31
272.3935238164417
  0
LINE
  5
64A
330
1F
100
AcDbEntity
  8
EMNE
100
AcDbLine
 10
2933.793520407269
 20
2133.807743306666
 30
272.3935238164455
 11
2915.108283638465
 21
2198.307743306672
 31
272.3935238164447
  0
LINE
  5
64B
330
1F
100
AcDbEntity
  8
EMNE
100
AcDbLine
 10
2851.108283638462
 20
2105.807743306665
 30
272.3935238164464
 11
2851.108283638465
 21
2218.307743306666
 31
272.3935238164469
  0
LINE
  5
64C
330
1F
100
AcDbEntity
  8
STIPLET
100
AcDbLine
 10
2967.108283638476
 20
2130.807743306653
 30
272.3935238164456
 11
3017.10828363848
 21
2130.807743306652
 31
272.3935238164471
  0
ARC
  5
64D
330
1F
100
AcDbEntity
  8
EMNE
100
AcDbCircle
 10
2980.108283638472
 20
2103.307743306657
 30
272.393523816456
 40
22.5
100
AcDbArc
 50
0.0
 51
90.00000000000325
  0
CIRCLE
  5
64E
330
1F
100
AcDbEntity
  8
EMNE
100
AcDbCircle
 10
2980.108283638472
 20
2102.807743306657
 30
272.3935238164567
 40
12.5
  0
CIRCLE
  5
64F
330
1F
100
AcDbEntity
  8
EMNE
100
AcDbCircle
 10
2980.108283638469
 20
2102.80774330666
 30
272.3935238164559
 40
12.5
  0
LINE
  5
650
330
1F
100
AcDbEntity
  8
EMNE
100
AcDbLine
 10
3002.608283638472
 20
1995.807743306649
 30
272.3935238164562
 11
2972.608283638472
 21
1965.807743306649
 31
272.3935238164481
  0
LINE
  5
651
330
1F
100
AcDbEntity
  8
MAAL
100
AcDbLine
 10
2801.176304310067
 20
2021.631839693029
 30
272.3935238164417
 11
2827.608283638472
 21
2040.807743306668
 31
272.3935238164426
  0
LINE
  5
652
330
1F
100
AcDbEntity
  8
EMNE
100
AcDbLine
 10
2867.608283638465
 20
2133.807743306663
 30
272.3935238164465
 11
2867.608283638469
 21
1965.807743306649
 31
272.3935238164468
  0
LINE
  5
653
330
1F
100
AcDbEntity
  8
MAAL
100
AcDbLine
 10
2801.176304310067
 20
1981.631839693031
 30
272.3935238164416
 11
2827.608283638476
 21
2000.80774330667
 31
272.3935238164425
  0
LINE
  5
654
330
1F
100
AcDbEntity
  8
EMNE
100
AcDbLine
 10
2972.608283638472
 20
1965.807743306649
 30
272.3935238164481
 11
2867.608283638469
 21
1965.807743306649
 31
272.3935238164453
  0
LINE
  5
655
330
1F
100
AcDbEntity
  8
MAAL
100
AcDbLine
 10
2801.176304310067
 20
1941.631839693031
 30
272.3935238164425
 11
2827.608283638476
 21
1960.80774330667
 31
272.3935238164416
  0
LINE
  5
656
330
1F
100
AcDbEntity
  8
EMNE
100
AcDbLine
 10
2830.608283638465
 20
1950.807743306665
 30
272.3935238164468
 11
2827.608283638462
 21
1950.807743306666
 31
272.3935238164453
  0
LINE
  5
657
330
1F
100
AcDbEntity
  8
MIDT
100
AcDbLine
 10
2840.608283638461
 20
1930.807743306665
 30
272.393523816447
 11
2817.608283638465
 21
1930.807743306666
 31
272.3935238164447
  0
LINE
  5
658
330
1F
100
AcDbEntity
  8
EMNE
100
AcDbLine
 10
2837.608283638465
 20
1985.807743306667
 30
272.3935238164454
 11
2867.608283638469
 21
1985.807743306667
 31
272.3935238164442
  0
CIRCLE
  5
659
330
1F
100
AcDbEntity
  8
EMNE
100
AcDbCircle
 10
2980.108283638472
 20
2102.807743306656
 30
272.3935238164567
 40
8.0
  0
LINE
  5
65A
330
1F
100
AcDbEntity
  8
MAAL
100
AcDbLine
 10
2801.176304310067
 20
2061.631839693029
 30
272.3935238164417
 11
2827.608283638472
 21
2080.807743306668
 31
272.3935238164426
  0
LINE
  5
65B
330
1F
100
AcDbEntity
  8
EMNE
100
AcDbLine
 10
2942.608283638469
 20
2133.807743306666
 30
272.3935238164467
 11
2867.608283638465
 21
2133.807743306663
 31
272.3935238164465
  0
LINE
  5
65C
330
1F
100
AcDbEntity
  8
EMNE
100
AcDbLine
 10
2967.608283638469
 20
2125.807743306666
 30
272.3935238164447
 11
2867.608283638469
 21
2125.807743306664
 31
272.3935238164464
  0
LINE
  5
65D
330
1F
100
AcDbEntity
  8
EMNE
100
AcDbLine
 10
2837.608283638465
 20
2105.807743306664
 30
272.3935238164438
 11
2867.608283638465
 21
2105.807743306663
 31
272.3935238164444
  0
LINE
  5
65E
330
1F
100
AcDbEntity
  8
MAAL
100
AcDbLine
 10
2801.176304310067
 20
2101.631839693029
 30
272.3935238164417
 11
2827.608283638472
 21
2120.807743306668
 31
272.3935238164417
  0
LINE
  5
65F
330
1F
100
AcDbEntity
  8
MAAL
100
AcDbLine
 10
2801.176304310067
 20
2101.631839693029
 30
272.3935238164408
 11
2827.608283638472
 21
2120.807743306668
 31
272.3935238164408
  0
LINE
  5
660
330
1F
100
AcDbEntity
  8
EMNE
100
AcDbLine
 10
2967.608283638469
 20
2125.807743306667
 30
272.3935238164451
 11
2980.108283638469
 21
2125.807743306667
 31
272.3935238164451
  0
LINE
  5
661
330
1F
100
AcDbEntity
  8
EMNE
100
AcDbLine
 10
2942.608283638469
 20
2133.807743306665
 30
272.3935238164462
 11
2942.608283638469
 21
2125.807743306664
 31
272.3935238164454
  0
LINE
  5
662
330
1F
100
AcDbEntity
  8
STIPLET
100
AcDbLine
 10
2967.108283638469
 20
2130.807743306653
 30
272.3935238164445
 11
2947.108283638469
 21
2130.807743306652
 31
272.3935238164469
  0
LINE
  5
663
330
1F
100
AcDbEntity
  8
EMNE
100
AcDbLine
 10
3021.007696384799
 20
2045.807743306668
 30
272.3935238164458
 11
3021.007696384799
 21
2005.80774330667
 31
272.3935238164443
  0
LINE
  5
664
330
1F
100
AcDbEntity
  8
EMNE
100
AcDbLine
 10
3002.608283638472
 20
2103.307743306657
 30
272.3935238164559
 11
3002.608283638472
 21
1995.807743306649
 31
272.3935238164562
  0
LINE
  5
665
330
1F
100
AcDbEntity
  8
EMNE
100
AcDbLine
 10
3021.007696384799
 20
2005.80774330667
 30
272.3935238164443
 11
3002.608283638472
 21
2005.80774330667
 31
272.3935238164443
  0
LINE
  5
666
330
1F
100
AcDbEntity
  8
EMNE
100
AcDbLine
 10
3008.108283638469
 20
2115.807743306662
 30
272.393523816446
 11
3008.108283638469
 21
2065.807743306663
 31
272.3935238164466
  0
LINE
  5
667
330
1F
100
AcDbEntity
  8
EMNE
100
AcDbLine
 10
3021.007696384799
 20
2045.807743306668
 30
272.3935238164458
 11
3002.608283638476
 21
2045.807743306669
 31
272.3935238164449
  0
LINE
  5
668
330
1F
100
AcDbEntity
  8
EMNE
100
AcDbLine
 10
3008.108283638465
 20
2115.807743306668
 30
272.3935238164433
 11
3008.108283638465
 21
2135.807743306669
 31
272.3935238164458
  0
LINE
  5
669
330
1F
100
AcDbEntity
  8
STIPLET
100
AcDbLine
 10
2967.108283638472
 20
2180.807743306653
 30
272.3935238164454
 11
3017.108283638473
 21
2180.807743306653
 31
272.3935238164469
  0
LINE
  5
66A
330
1F
100
AcDbEntity
  8
MAAL
100
AcDbLine
 10
2801.176304310067
 20
2261.631839693029
 30
272.3935238164408
 11
2827.608283638472
 21
2280.807743306668
 31
272.3935238164417
  0
LINE
  5
66B
330
1F
100
AcDbEntity
  8
EMNE
100
AcDbLine
 10
2852.608283638465
 20
2198.307743306669
 30
272.3935238164468
 11
2917.608283638461
 21
2198.307743306668
 31
272.3935238164445
  0
LINE
  5
66C
330
1F
100
AcDbEntity
  8
EMNE
100
AcDbLine
 10
2837.608283638468
 20
2180.807743306663
 30
272.3935238164438
 11
2851.108283638465
 21
2180.807743306663
 31
272.393523816444
  0
LINE
  5
66D
330
1F
100
AcDbEntity
  8
MAAL
100
AcDbLine
 10
2801.176304310067
 20
2181.631839693029
 30
272.3935238164408
 11
2827.608283638472
 21
2200.807743306668
 31
272.3935238164417
  0
LINE
  5
66E
330
1F
100
AcDbEntity
  8
MAAL
100
AcDbLine
 10
2801.176304310067
 20
2221.631839693029
 30
272.3935238164408
 11
2827.608283638472
 21
2240.807743306668
 31
272.3935238164426
  0
LINE
  5
66F
330
1F
100
AcDbEntity
  8
EMNE
100
AcDbLine
 10
2851.108283638465
 20
2218.307743306666
 30
272.3935238164469
 11
2852.608283638465
 21
2218.307743306666
 31
272.3935238164469
  0
LINE
  5
670
330
1F
100
AcDbEntity
  8
MAAL
100
AcDbLine
 10
2801.176304310067
 20
2301.631839693029
 30
272.3935238164399
 11
2827.608283638472
 21
2320.807743306667
 31
272.3935238164408
  0
LINE
  5
671
330
1F
100
AcDbEntity
  8
MAAL
100
AcDbLine
 10
2801.176304310067
 20
2341.631839693029
 30
272.3935238164399
 11
2827.608283638472
 21
2360.807743306668
 31
272.3935238164408
  0
LINE
  5
672
330
1F
100
AcDbEntity
  8
MAAL
100
AcDbLine
 10
2801.176304310067
 20
2501.631839693029
 30
272.3935238164408
 11
2827.608283638476
 21
2520.807743306668
 31
272.3935238164399
  0
LINE
  5
673
330
1F
100
AcDbEntity
  8
MAAL
100
AcDbLine
 10
2801.176304310067
 20
2421.631839693029
 30
272.3935238164408
 11
2827.608283638472
 21
2440.807743306669
 31
272.3935238164408
  0
LINE
  5
674
330
1F
100
AcDbEntity
  8
MAAL
100
AcDbLine
 10
2801.176304310067
 20
2461.631839693029
 30
272.3935238164408
 11
2827.608283638476
 21
2480.807743306668
 31
272.3935238164408
  0
LINE
  5
675
330
1F
100
AcDbEntity
  8
MAAL
100
AcDbLine
 10
2801.176304310067
 20
2541.631839693029
 30
272.3935238164399
 11
2827.608283638476
 21
2560.807743306668
 31
272.3935238164399
  0
LINE
  5
676
330
1F
100
AcDbEntity
  8
MAAL
100
AcDbLine
 10
2801.176304310067
 20
2581.631839693029
 30
272.3935238164399
 11
2827.608283638476
 21
2600.807743306668
 31
272.3935238164399
  0
LINE
  5
677
330
1F
100
AcDbEntity
  8
STIPLET
100
AcDbLine
 10
2967.108283638472
 20
2725.807743306651
 30
272.393523816445
 11
3017.108283638473
 21
2725.807743306651
 31
272.393523816446
  0
LINE
  5
678
330
1F
100
AcDbEntity
  8
MAAL
100
AcDbLine
 10
2801.176304310067
 20
2661.631839693029
 30
272.3935238164399
 11
2827.608283638476
 21
2680.807743306668
 31
272.3935238164399
  0
LINE
  5
679
330
1F
100
AcDbEntity
  8
MAAL
100
AcDbLine
 10
2801.176304310067
 20
2621.631839693029
 30
272.3935238164399
 11
2827.608283638476
 21
2640.807743306668
 31
272.3935238164399
  0
LINE
  5
67A
330
1F
100
AcDbEntity
  8
MAAL
100
AcDbLine
 10
2801.176304310067
 20
2701.631839693029
 30
272.3935238164399
 11
2827.608283638476
 21
2720.807743306668
 31
272.3935238164399
  0
LINE
  5
67B
330
1F
100
AcDbEntity
  8
MAAL
100
AcDbLine
 10
2801.176304310067
 20
2781.631839693029
 30
272.3935238164399
 11
2827.608283638476
 21
2800.807743306668
 31
272.3935238164399
  0
LINE
  5
67C
330
1F
100
AcDbEntity
  8
MAAL
100
AcDbLine
 10
2801.176304310067
 20
2741.631839693029
 30
272.3935238164399
 11
2827.608283638476
 21
2760.807743306668
 31
272.3935238164399
  0
LINE
  5
67D
330
1F
100
AcDbEntity
  8
STIPLET
100
AcDbLine
 10
2967.108283638472
 20
2830.807743306653
 30
272.3935238164431
 11
2947.108283638469
 21
2830.807743306653
 31
272.3935238164444
  0
INSERT
  5
67E
330
1F
100
AcDbEntity
  8
EMNE
100
AcDbBlockReference
  2
*X4
 10
3073.505187277822
 20
2826.022948896361
 30
272.393523816456
 41
19.99999999999998
 42
20.0
 43
20.0
 50
171.300681556786
1001
ACAD
1000
HATCH
1002
{
1070
    16
1000
LINE
1040
1.0
1040
0.0
1002
}
  0
LINE
  5
67F
330
1F
100
AcDbEntity
  8
EMNE
100
AcDbLine
 10
3073.505187277812
 20
2826.022948896361
 30
272.393523816456
 11
3139.192887642994
 21
2803.764192792177
 31
272.393523816456
  0
LINE
  5
680
330
1F
100
AcDbEntity
  8
EMNE
100
AcDbLine
 10
3073.505187277812
 20
2826.022948896361
 30
272.393523816456
 11
3142.739766682387
 21
2826.944995304609
 31
272.393523816456
  0
LINE
  5
681
330
1F
100
AcDbEntity
  8
EMNE
100
AcDbLine
 10
3603.108283638465
 20
2115.807743306663
 30
272.3935238164453
 11
3603.108283638465
 21
2065.807743306663
 31
272.3935238164443
  0
LINE
  5
682
330
1F
100
AcDbEntity
  8
EMNE
100
AcDbLine
 10
3708.108283638465
 20
2115.807743306667
 30
272.3935238164445
 11
3708.108283638465
 21
2135.807743306671
 31
272.3935238164436
  0
INSERT
  5
683
330
1F
100
AcDbEntity
  8
EMNE
100
AcDbBlockReference
  2
*X4
 10
3704.241641425165
 20
2184.984729909706
 30
272.393523816456
 41
19.99999999999998
 42
20.0
 43
20.0
 50
279.8212877298446
1001
ACAD
1000
HATCH
1002
{
1070
    16
1000
LINE
1040
1.0
1040
0.0
1002
}
  0
LINE
  5
684
330
1F
100
AcDbEntity
  8
EMNE
100
AcDbLine
 10
3704.241641425165
 20
2184.984729909705
 30
272.393523816456
 11
3681.375282101688
 21
2250.34073014072
 31
272.393523816456
  0
LINE
  5
685
330
1F
100
AcDbEntity
  8
EMNE
100
AcDbLine
 10
3704.241641425165
 20
2184.984729909705
 30
272.393523816456
 11
3704.482189582757
 21
2254.340827977248
 31
272.393523816456
  0
LINE
  5
686
330
1F
100
AcDbEntity
  8
EMNE
100
AcDbLine
 10
2837.608283638468
 20
2975.807743306667
 30
272.3935238164417
 11
2837.608283638468
 21
2925.807743306665
 31
272.3935238164423
  0
LINE
  5
687
330
1F
100
AcDbEntity
  8
EMNE
100
AcDbLine
 10
2827.608283638469
 20
2975.807743306665
 30
272.3935238164426
 11
2827.608283638469
 21
2925.807743306665
 31
272.3935238164417
  0
LINE
  5
688
330
1F
100
AcDbEntity
  8
MAAL
100
AcDbLine
 10
2801.176304310067
 20
2901.631839693029
 30
272.3935238164399
 11
2827.608283638476
 21
2920.807743306668
 31
272.3935238164399
  0
LINE
  5
689
330
1F
100
AcDbEntity
  8
MAAL
100
AcDbLine
 10
2801.176304310067
 20
2861.631839693029
 30
272.3935238164399
 11
2827.608283638476
 21
2880.807743306668
 31
272.3935238164399
  0
LINE
  5
68A
330
1F
100
AcDbEntity
  8
EMNE
100
AcDbLine
 10
2837.608283638472
 20
2955.807743306667
 30
272.3935238164413
 11
2852.608283638469
 21
2955.807743306667
 31
272.3935238164413
  0
LINE
  5
68B
330
1F
100
AcDbEntity
  8
MAAL
100
AcDbLine
 10
2801.176304310067
 20
2941.631839693029
 30
272.3935238164399
 11
2827.608283638476
 21
2960.807743306668
 31
272.3935238164399
  0
LINE
  5
68C
330
1F
100
AcDbEntity
  8
MIDT
100
AcDbLine
 10
2822.480149405257
 20
2935.807743306665
 30
272.3935238164407
 11
2852.480149405257
 21
2935.807743306667
 31
272.3935238164408
  0
LINE
  5
68D
330
1F
100
AcDbEntity
  8
EMNE
100
AcDbLine
 10
2827.608283638469
 20
2925.807743306665
 30
272.3935238164417
 11
2837.608283638468
 21
2925.807743306665
 31
272.3935238164423
  0
LINE
  5
68E
330
1F
100
AcDbEntity
  8
MAAL
100
AcDbLine
 10
2801.176304310067
 20
3021.631839693029
 30
272.3935238164399
 11
2827.608283638476
 21
3040.807743306668
 31
272.3935238164399
  0
LINE
  5
68F
330
1F
100
AcDbEntity
  8
EMNE
100
AcDbLine
 10
2837.608283638468
 20
2978.307743306669
 30
272.393523816444
 11
2907.608283638469
 21
2978.307743306669
 31
272.3935238164435
  0
LINE
  5
690
330
1F
100
AcDbEntity
  8
EMNE
100
AcDbLine
 10
2837.608283638468
 20
2975.807743306669
 30
272.3935238164429
 11
2837.608283638468
 21
2978.307743306669
 31
272.393523816444
  0
LINE
  5
691
330
1F
100
AcDbEntity
  8
EMNE
100
AcDbLine
 10
2852.608283638469
 20
2975.807743306669
 30
272.3935238164431
 11
2842.608283638469
 21
2975.807743306667
 31
272.3935238164435
  0
LINE
  5
692
330
1F
100
AcDbEntity
  8
EMNE
100
AcDbLine
 10
2827.608283638469
 20
2975.807743306665
 30
272.3935238164426
 11
2852.608283638469
 21
2975.807743306665
 31
272.3935238164425
  0
ARC
  5
693
330
1F
100
AcDbEntity
  8
EMNE
100
AcDbCircle
 10
2907.608283638472
 20
2968.307743306668
 30
272.3935238164316
 40
10.0
100
AcDbArc
 50
0.0
 51
90.0
  0
LINE
  5
694
330
1F
100
AcDbEntity
  8
MAAL
100
AcDbLine
 10
2801.176304310067
 20
3061.631839693029
 30
272.3935238164399
 11
2827.608283638476
 21
3080.807743306668
 31
272.3935238164399
  0
LINE
  5
696
330
1F
100
AcDbEntity
  8
MAAL
100
AcDbLine
 10
2030.486932091021
 20
1557.466500409514
 30
272.3935238164028
 11
2049.662835704659
 21
1531.034521081108
 31
272.3935238164019
  0
LINE
  5
697
330
1F
100
AcDbEntity
  8
MAAL
100
AcDbLine
 10
2030.486932091021
 20
1807.375763978271
 30
272.3935238164478
 11
2049.662835704659
 21
1833.807743306678
 31
272.3935238164469
  0
LINE
  5
698
330
1F
100
AcDbEntity
  8
MAAL
100
AcDbLine
 10
830.4869320910221
 20
1807.375763978269
 30
272.3935238164511
 11
849.6628357046612
 21
1833.807743306674
 31
272.393523816452
  0
LINE
  5
699
330
1F
100
AcDbEntity
  8
MAAL
100
AcDbLine
 10
830.4869320910201
 20
1557.466500409504
 30
272.393523816406
 11
849.6628357046612
 21
1531.034521081099
 31
272.393523816407
  0
DIMENSION
  5
69A
330
1F
100
AcDbEntity
  8
AM_5
100
AcDbDimension
  2
*D20
 10
2141.482814101941
 20
882.1403678051337
 30
0.0
 11
1441.48281410194
 21
914.6403678051338
 31
0.0
 70
    32
  1
<>0
 71
     5
 42
140.0000000000002
  3
ROPOX
100
AcDbAlignedDimension
 13
741.4828141019389
 23
655.5345210811251
 33
0.0
 14
2141.482814101941
 24
655.534521081087
 34
0.0
 50
180.0
100
AcDbRotatedDimension
1001
GENIUS_GENDTOL_13
1000

1000
h7
1000

1040
0.0
1001
ACAD
1000
DSTYLE
1002
{
1070
   144
1040
0.1
1002
}
  0
DIMENSION
  5
69B
330
1F
100
AcDbEntity
  8
MAAL
  6
Continuous
100
AcDbDimension
  2
*D21
 10
2967.108283638465
 20
1712.085109618595
 30
0.0
 11
2897.358283638467
 21
1744.585109618595
 31
0.0
 70
    32
  1
150
 71
     5
 42
13.94999999999964
  3
ROPOX
100
AcDbAlignedDimension
 13
2827.608283638469
 23
1833.807743306695
 33
272.3935238164262
 14
2967.108283638465
 24
1853.807743306656
 34
272.3935238164473
100
AcDbRotatedDimension
1001
ACAD
1000
DSTYLE
1002
{
1070
   144
1040
0.1
1002
}
  0
ENDSEC
  0
SECTION
  2
OBJECTS
  0
DICTIONARY
  5
C
330
0
100
AcDbDictionary
281
     1
  3
ACAD_COLOR
350
BE
  3
ACAD_GROUP
350
D
  3
ACAD_LAYOUT
350
1A
  3
ACAD_MATERIAL
350
BD
  3
ACAD_MLINESTYLE
350
17
  3
ACAD_PLOTSETTINGS
350
19
  3
ACAD_PLOTSTYLENAME
350
E
  3
ACAD_TABLESTYLE
350
11A
  3
ACDBHEADERROUNDTRIPXREC
350
817
  3
AcDbVariableDictionary
350
94
  3
AcmDictionary
350
5B
  3
AMG
350
41
  3
AMGSNAPSETTINGS
350
4F2
  3
DWGPROPS
350
816
  0
DICTIONARY
  5
8F
330
1F
100
AcDbDictionary
280
     1
281
     1
  0
DICTIONARY
  5
BE
102
{ACAD_REACTORS
330
C
102
}
330
C
100
AcDbDictionary
281
     1
  0
DICTIONARY
  5
D
102
{ACAD_REACTORS
330
C
102
}
330
C
100
AcDbDictionary
281
     1
  0
DICTIONARY
  5
1A
102
{ACAD_REACTORS
330
C
102
}
330
C
100
AcDbDictionary
281
     1
  3
Layout1
350
1E
  3
Layout2
350
26
  3
Model
350
22
  0
DICTIONARY
  5
BD
102
{ACAD_REACTORS
330
C
102
}
330
C
100
AcDbDictionary
281
     1
  0
DICTIONARY
  5
17
102
{ACAD_REACTORS
330
C
102
}
330
C
100
AcDbDictionary
281
     1
  3
Standard
350
18
  0
DICTIONARY
  5
19
102
{ACAD_REACTORS
330
C
102
}
330
C
100
AcDbDictionary
281
     1
  0
ACDBDICTIONARYWDFLT
  5
E
102
{ACAD_REACTORS
330
C
102
}
330
C
100
AcDbDictionary
281
     1
  3
Normal
350
F
100
AcDbDictionaryWithDefault
340
F
  0
DICTIONARY
  5
11A
102
{ACAD_REACTORS
330
C
102
}
330
C
100
AcDbDictionary
281
     1
  3
Standard
350
11B
  0
DICTIONARY
  5
817
102
{ACAD_REACTORS
330
C
102
}
330
C
100
AcDbDictionary
281
     1
  0
DICTIONARY
  5
94
102
{ACAD_REACTORS
330
C
102
}
330
C
100
AcDbDictionary
281
     1
  3
CTABLESTYLE
350
138
  3
DIMASSOC
350
96
  3
INDEXCTL
350
95
  3
PROJECTNAME
350
814
  0
DICTIONARY
  5
5B
102
{ACAD_REACTORS
330
C
102
}
330
C
100
AcDbDictionary
281
     1
  3
AcmStdDictionary
350
61
  3
AMDTSECTSYM_ARROWCOLOR
350
123
  0
DICTIONARY
  5
41
102
{ACAD_REACTORS
330
C
102
}
330
C
100
AcDbDictionary
281
     1
  0
DICTIONARY
  5
4F2
102
{ACAD_REACTORS
330
C
102
}
330
C
100
AcDbDictionary
281
     1
  0
XRECORD
  5
816
102
{ACAD_REACTORS
330
C
102
}
330
C
100
AcDbXrecord
280
     1
  1
DWGPROPS COOKIE
  2

  3

  4

  6

  7

  8

  9

300
AmdtFileType=84
301
=
302
=
303
=
304
=
305
=
306
=
307
=
308
=
309
=
 40
0.0065010069444444
 41
2453615.364941401
 42
2453616.558406482
  1

 90
        1
  0
LAYOUT
  5
1E
102
{ACAD_XDICTIONARY
360
818
102
}
102
{ACAD_REACTORS
330
1A
102
}
330
1A
100
AcDbPlotSettings
  1

  2

  4

  6

 40
0.0
 41
0.0
 42
0.0
 43
0.0
 44
0.0
 45
0.0
 46
0.0
 47
0.0
 48
0.0
 49
0.0
140
0.0
141
0.0
142
1.0
143
1.0
 70
   688
 72
     0
 73
     0
 74
     5
  7

 75
    16
147
1.0
148
0.0
149
0.0
100
AcDbLayout
  1
Layout1
 70
     1
 71
     1
 10
0.0
 20
0.0
 11
420.0
 21
297.0
 12
0.0
 22
0.0
 32
0.0
 14
1.000000000000000E+20
 24
1.000000000000000E+20
 34
1.000000000000000E+20
 15
-1.000000000000000E+20
 25
-1.000000000000000E+20
 35
-1.000000000000000E+20
146
0.0
 13
0.0
 23
0.0
 33
0.0
 16
1.0
 26
0.0
 36
0.0
 17
0.0
 27
1.0
 37
0.0
 76
     0
330
1B
  0
LAYOUT
  5
26
102
{ACAD_XDICTIONARY
360
81C
102
}
102
{ACAD_REACTORS
330
1A
102
}
330
1A
100
AcDbPlotSettings
  1

  2

  4

  6

 40
0.0
 41
0.0
 42
0.0
 43
0.0
 44
0.0
 45
0.0
 46
0.0
 47
0.0
 48
0.0
 49
0.0
140
0.0
141
0.0
142
1.0
143
1.0
 70
   688
 72
     0
 73
     0
 74
     5
  7

 75
    16
147
1.0
148
0.0
149
0.0
100
AcDbLayout
  1
Layout2
 70
     1
 71
     2
 10
0.0
 20
0.0
 11
12.0
 21
9.0
 12
0.0
 22
0.0
 32
0.0
 14
0.0
 24
0.0
 34
0.0
 15
0.0
 25
0.0
 35
0.0
146
0.0
 13
0.0
 23
0.0
 33
0.0
 16
1.0
 26
0.0
 36
0.0
 17
0.0
 27
1.0
 37
0.0
 76
     0
330
23
  0
LAYOUT
  5
22
102
{ACAD_XDICTIONARY
360
81A
102
}
102
{ACAD_REACTORS
330
1A
102
}
330
1A
100
AcDbPlotSettings
  1

  2

  4

  6

 40
0.0
 41
0.0
 42
0.0
 43
0.0
 44
0.0
 45
0.0
 46
0.0
 47
0.0
 48
0.0
 49
0.0
140
0.0
141
0.0
142
1.0
143
1.0
 70
  1712
 72
     0
 73
     0
 74
     0
  7

 75
     0
147
1.0
148
0.0
149
0.0
100
AcDbLayout
  1
Model
 70
     1
 71
     0
 10
0.0
 20
0.0
 11
12.0
 21
9.0
 12
0.0
 22
0.0
 32
0.0
 14
0.0
 24
0.0
 34
0.0
 15
0.0
 25
0.0
 35
0.0
146
0.0
 13
0.0
 23
0.0
 33
0.0
 16
1.0
 26
0.0
 36
0.0
 17
0.0
 27
1.0
 37
0.0
 76
     0
330
1F
  0
MLINESTYLE
  5
18
102
{ACAD_REACTORS
330
17
102
}
330
17
100
AcDbMlineStyle
  2
STANDARD
 70
     0
  3

 62
   256
 51
90.0
 52
90.0
 71
     2
 49
0.5
 62
   256
  6
BYLAYER
 49
-0.5
 62
   256
  6
BYLAYER
  0
ACDBPLACEHOLDER
  5
F
102
{ACAD_REACTORS
330
E
102
}
330
E
  0
TABLESTYLE
  5
11B
102
{ACAD_REACTORS
330
11A
102
}
330
11A
100
AcDbTableStyle
  3
Standard
 70
     0
 71
     0
 40
1.5
 41
1.5
280
     0
281
     0
  7
STANDARD
140
4.5
170
     2
 62
     0
 63
     7
283
     0
274
    -2
284
     1
 64
     0
275
    -2
285
     1
 65
     0
276
    -2
286
     1
 66
     0
277
    -2
287
     1
 67
     0
278
    -2
288
     1
 68
     0
279
    -2
289
     1
 69
     0
  7
STANDARD
140
6.0
170
     5
 62
     0
 63
     7
283
     0
274
    -2
284
     1
 64
     0
275
    -2
285
     1
 65
     0
276
    -2
286
     1
 66
     0
277
    -2
287
     1
 67
     0
278
    -2
288
     1
 68
     0
279
    -2
289
     1
 69
     0
  7
STANDARD
140
4.5
170
     5
 62
     0
 63
     7
283
     0
274
    -2
284
     1
 64
     0
275
    -2
285
     1
 65
     0
276
    -2
286
     1
 66
     0
277
    -2
287
     1
 67
     0
278
    -2
288
     1
 68
     0
279
    -2
289
     1
 69
     0
  0
DICTIONARYVAR
  5
138
102
{ACAD_REACTORS
330
94
102
}
330
94
100
DictionaryVariables
280
     0
  1
STANDARD
  0
DICTIONARYVAR
  5
96
102
{ACAD_REACTORS
330
94
102
}
330
94
100
DictionaryVariables
280
     0
  1
2
  0
DICTIONARYVAR
  5
95
102
{ACAD_REACTORS
330
94
102
}
330
94
100
DictionaryVariables
280
     0
  1
0
  0
DICTIONARYVAR
  5
814
102
{ACAD_REACTORS
330
94
102
}
330
94
100
DictionaryVariables
280
     0
  1

  0
DICTIONARY
  5
61
102
{ACAD_REACTORS
330
5B
102
}
330
5B
100
AcDbDictionary
281
     1
  0
XRECORD
  5
123
102
{ACAD_REACTORS
330
5B
102
}
330
5B
100
AcDbXrecord
280
     1
 90
-1023410169
  0
DICTIONARY
  5
818
330
1E
100
AcDbDictionary
280
     1
281
     1
  3
ACAD_XREC_ROUNDTRIP
360
819
  0
DICTIONARY
  5
81C
330
26
100
AcDbDictionary
280
     1
281
     1
  3
ACAD_XREC_ROUNDTRIP
360
81D
  0
DICTIONARY
  5
81A
330
22
100
AcDbDictionary
280
     1
281
     1
  3
ACAD_XREC_ROUNDTRIP
360
81B
  0
XRECORD
  5
819
102
{ACAD_REACTORS
330
818
102
}
330
818
100
AcDbXrecord
280
     1
102
SHADEPLOT
 70
     0
102
SHADEPLOTRESLEVEL
 70
     2
102
SHADEPLOTCUSTOMDPI
 70
   300
  0
XRECORD
  5
81D
102
{ACAD_REACTORS
330
81C
102
}
330
81C
100
AcDbXrecord
280
     1
102
SHADEPLOT
 70
     0
102
SHADEPLOTRESLEVEL
 70
     2
102
SHADEPLOTCUSTOMDPI
 70
   300
  0
XRECORD
  5
81B
102
{ACAD_REACTORS
330
81A
102
}
330
81A
100
AcDbXrecord
280
     1
102
SHADEPLOT
 70
     0
102
SHADEPLOTRESLEVEL
 70
     2
102
SHADEPLOTCUSTOMDPI
 70
   300
  0
ENDSEC
  0
EOF
