  0
SECTION
  2
HEADER
  9
$ACADVER
  1
AC1015
  9
$ACADMAINTVER
 70
    20
  9
$DWGCODEPAGE
  3
ANSI_1252
  9
$INSBASE
 10
0.0
 20
0.0
 30
0.0
  9
$EXTMIN
 10
580.7248333845473
 20
794.4929705972772
 30
-0.0000000000013642
  9
$EXTMAX
 10
3916.264347785984
 20
3374.748313788439
 30
272.3935238165574
  9
$LIMMIN
 10
0.0
 20
0.0
  9
$LIMMAX
 10
420.0
 20
297.0
  9
$ORTHOMODE
 70
     0
  9
$REGENMODE
 70
     1
  9
$FILLMODE
 70
     1
  9
$QTEXTMODE
 70
     0
  9
$MIRRTEXT
 70
     1
  9
$LTSCALE
 40
1.0
  9
$ATTMODE
 70
     1
  9
$TEXTSIZE
 40
2.5
  9
$TRACEWID
 40
1.0
  9
$TEXTSTYLE
  7
STANDARD
  9
$CLAYER
  8
0
  9
$CELTYPE
  6
ByLayer
  9
$CECOLOR
 62
   256
  9
$CELTSCALE
 40
1.0
  9
$DISPSILH
 70
     0
  9
$DIMSCALE
 40
1.0
  9
$DIMASZ
 40
2.5
  9
$DIMEXO
 40
1.0
  9
$DIMDLI
 40
10.0
  9
$DIMRND
 40
0.0
  9
$DIMDLE
 40
0.0
  9
$DIMEXE
 40
1.0
  9
$DIMTP
 40
0.1
  9
$DIMTM
 40
0.1
  9
$DIMTXT
 40
3.5
  9
$DIMCEN
 40
0.0
  9
$DIMTSZ
 40
0.0
  9
$DIMTOL
 70
     0
  9
$DIMLIM
 70
     0
  9
$DIMTIH
 70
     0
  9
$DIMTOH
 70
     0
  9
$DIMSE1
 70
     0
  9
$DIMSE2
 70
     0
  9
$DIMTAD
 70
     1
  9
$DIMZIN
 70
     8
  9
$DIMBLK
  1

  9
$DIMASO
 70
     1
  9
$DIMSHO
 70
     1
  9
$DIMPOST
  1

  9
$DIMAPOST
  1
"
  9
$DIMALT
 70
     0
  9
$DIMALTD
 70
     2
  9
$DIMALTF
 40
0.0393701
  9
$DIMLFAC
 40
1.0
  9
$DIMTOFL
 70
     1
  9
$DIMTVP
 40
0.0
  9
$DIMTIX
 70
     0
  9
$DIMSOXD
 70
     0
  9
$DIMSAH
 70
     0
  9
$DIMBLK1
  1

  9
$DIMBLK2
  1

  9
$DIMSTYLE
  2
AM_ISO
  9
$DIMCLRD
 70
   256
  9
$DIMCLRE
 70
   256
  9
$DIMCLRT
 70
     2
  9
$DIMTFAC
 40
0.71
  9
$DIMGAP
 40
1.5
  9
$DIMJUST
 70
     0
  9
$DIMSD1
 70
     0
  9
$DIMSD2
 70
     0
  9
$DIMTOLJ
 70
     0
  9
$DIMTZIN
 70
     8
  9
$DIMALTZ
 70
     0
  9
$DIMALTTZ
 70
     0
  9
$DIMUPT
 70
     0
  9
$DIMDEC
 70
     2
  9
$DIMTDEC
 70
     3
  9
$DIMALTU
 70
     2
  9
$DIMALTTD
 70
     4
  9
$DIMTXSTY
  7
STANDARD
  9
$DIMAUNIT
 70
     0
  9
$DIMADEC
 70
     0
  9
$DIMALTRND
 40
0.0
  9
$DIMAZIN
 70
     2
  9
$DIMDSEP
 70
    46
  9
$DIMATFIT
 70
     3
  9
$DIMFRAC
 70
     0
  9
$DIMLDRBLK
  1

  9
$DIMLUNIT
 70
     2
  9
$DIMLWD
 70
    -1
  9
$DIMLWE
 70
    -1
  9
$DIMTMOVE
 70
     0
  9
$LUNITS
 70
     2
  9
$LUPREC
 70
     2
  9
$SKETCHINC
 40
1.0
  9
$FILLETRAD
 40
2.5
  9
$AUNITS
 70
     0
  9
$AUPREC
 70
     0
  9
$MENU
  1
.
  9
$ELEVATION
 40
0.0
  9
$PELEVATION
 40
0.0
  9
$THICKNESS
 40
0.0
  9
$LIMCHECK
 70
     0
  9
$CHAMFERA
 40
2.5
  9
$CHAMFERB
 40
2.5
  9
$CHAMFERC
 40
20.0
  9
$CHAMFERD
 40
0.0
  9
$SKPOLY
 70
     0
  9
$TDCREATE
 40
2453615.372808704
  9
$TDUCREATE
 40
2453615.289475370
  9
$TDUPDATE
 40
2453616.558610833
  9
$TDUUPDATE
 40
2453616.475277500
  9
$TDINDWG
 40
0.0012405903
  9
$TDUSRTIMER
 40
0.0012405903
  9
$USRTIMER
 70
     1
  9
$ANGBASE
 50
0.0
  9
$ANGDIR
 70
     0
  9
$PDMODE
 70
     0
  9
$PDSIZE
 40
0.0
  9
$PLINEWID
 40
0.0
  9
$SPLFRAME
 70
     0
  9
$SPLINETYPE
 70
     6
  9
$SPLINESEGS
 70
     8
  9
$HANDSEED
  5
853
  9
$SURFTAB1
 70
     6
  9
$SURFTAB2
 70
     6
  9
$SURFTYPE
 70
     6
  9
$SURFU
 70
     6
  9
$SURFV
 70
     6
  9
$UCSBASE
  2

  9
$UCSNAME
  2

  9
$UCSORG
 10
0.0
 20
0.0
 30
0.0
  9
$UCSXDIR
 10
1.0
 20
0.0
 30
0.0
  9
$UCSYDIR
 10
0.0
 20
1.0
 30
0.0
  9
$UCSORTHOREF
  2

  9
$UCSORTHOVIEW
 70
     0
  9
$UCSORGTOP
 10
0.0
 20
0.0
 30
0.0
  9
$UCSORGBOTTOM
 10
0.0
 20
0.0
 30
0.0
  9
$UCSORGLEFT
 10
0.0
 20
0.0
 30
0.0
  9
$UCSORGRIGHT
 10
0.0
 20
0.0
 30
0.0
  9
$UCSORGFRONT
 10
0.0
 20
0.0
 30
0.0
  9
$UCSORGBACK
 10
0.0
 20
0.0
 30
0.0
  9
$PUCSBASE
  2

  9
$PUCSNAME
  2

  9
$PUCSORG
 10
0.0
 20
0.0
 30
0.0
  9
$PUCSXDIR
 10
1.0
 20
0.0
 30
0.0
  9
$PUCSYDIR
 10
0.0
 20
1.0
 30
0.0
  9
$PUCSORTHOREF
  2

  9
$PUCSORTHOVIEW
 70
     0
  9
$PUCSORGTOP
 10
0.0
 20
0.0
 30
0.0
  9
$PUCSORGBOTTOM
 10
0.0
 20
0.0
 30
0.0
  9
$PUCSORGLEFT
 10
0.0
 20
0.0
 30
0.0
  9
$PUCSORGRIGHT
 10
0.0
 20
0.0
 30
0.0
  9
$PUCSORGFRONT
 10
0.0
 20
0.0
 30
0.0
  9
$PUCSORGBACK
 10
0.0
 20
0.0
 30
0.0
  9
$USERI1
 70
     0
  9
$USERI2
 70
     0
  9
$USERI3
 70
     0
  9
$USERI4
 70
     0
  9
$USERI5
 70
     0
  9
$USERR1
 40
0.0
  9
$USERR2
 40
0.0
  9
$USERR3
 40
0.0
  9
$USERR4
 40
0.0
  9
$USERR5
 40
0.0
  9
$WORLDVIEW
 70
     1
  9
$SHADEDGE
 70
     3
  9
$SHADEDIF
 70
    70
  9
$TILEMODE
 70
     1
  9
$MAXACTVP
 70
    64
  9
$PINSBASE
 10
0.0
 20
0.0
 30
0.0
  9
$PLIMCHECK
 70
     0
  9
$PEXTMIN
 10
1.000000000000000E+20
 20
1.000000000000000E+20
 30
1.000000000000000E+20
  9
$PEXTMAX
 10
-1.000000000000000E+20
 20
-1.000000000000000E+20
 30
-1.000000000000000E+20
  9
$PLIMMIN
 10
0.0
 20
0.0
  9
$PLIMMAX
 10
420.0
 20
297.0
  9
$UNITMODE
 70
     0
  9
$VISRETAIN
 70
     1
  9
$PLINEGEN
 70
     0
  9
$PSLTSCALE
 70
     1
  9
$TREEDEPTH
 70
  3020
  9
$CMLSTYLE
  2
Standard
  9
$CMLJUST
 70
     0
  9
$CMLSCALE
 40
20.0
  9
$PROXYGRAPHICS
 70
     1
  9
$MEASUREMENT
 70
     1
  9
$CELWEIGHT
370
    -1
  9
$ENDCAPS
280
     0
  9
$JOINSTYLE
280
     0
  9
$LWDISPLAY
290
     0
  9
$INSUNITS
 70
     4
  9
$HYPERLINKBASE
  1

  9
$STYLESHEET
  1

  9
$XEDIT
290
     1
  9
$CEPSNTYPE
380
     0
  9
$PSTYLEMODE
290
     1
  9
$FINGERPRINTGUID
  2
{704D6CEF-7D32-4469-8725-66ADC8D7C458}
  9
$VERSIONGUID
  2
{150D03EF-8511-49BD-96AC-98098A988B5C}
  9
$EXTNAMES
290
     1
  9
$PSVPSCALE
 40
0.0
  9
$OLESTARTUP
290
     0
  0
ENDSEC
  0
SECTION
  2
CLASSES
  0
CLASS
  1
ACDBDICTIONARYWDFLT
  2
AcDbDictionaryWithDefault
  3
ObjectDBX Classes
 90
        0
280
     0
281
     0
  0
CLASS
  1
ACDBPLACEHOLDER
  2
AcDbPlaceHolder
  3
ObjectDBX Classes
 90
        0
280
     0
281
     0
  0
CLASS
  1
LAYOUT
  2
AcDbLayout
  3
ObjectDBX Classes
 90
        0
280
     0
281
     0
  0
CLASS
  1
ACME_DOCUMENT
  2
AcMeDbDoc
  3
AcMeServices
 90
        0
280
     0
281
     0
  0
CLASS
  1
AMGSETTINGSOBJ
  2
AmgSettingsObj
  3
"AcadM|Product Description: AutoCAD Mechanical 2000|Company: Autodesk"
 90
        0
280
     0
281
     0
  0
CLASS
  1
ACMESCOPE
  2
AcMeScope
  3
AcMeServices
 90
        0
280
     0
281
     0
  0
CLASS
  1
ACMECOMMANDHISTORY
  2
AcMeCommandHistory
  3
AcMeServices
 90
        0
280
     0
281
     0
  0
CLASS
  1
ACIMSYSVARMAN
  2
AcImSysVarManager
  3
AcMeServices
 90
        0
280
     0
281
     0
  0
CLASS
  1
ACIMREALSYSVAR
  2
AcImRealSysVar
  3
AcMeServices
 90
        0
280
     0
281
     0
  0
CLASS
  1
ACIMINTSYSVAR
  2
AcImIntSysVar
  3
AcMeServices
 90
        0
280
     0
281
     0
  0
CLASS
  1
ACMEDRAWINGMAN
  2
AcMeDrawingMan
  3
AcMeServices
 90
        0
280
     0
281
     0
  0
CLASS
  1
ACMEVIEW
  2
AcMeView
  3
AcMeServices
 90
        0
280
     0
281
     0
  0
CLASS
  1
ACDBENTITYCACHE
  2
AcMeEntityCache
  3
AcMeServices
 90
        0
280
     0
281
     0
  0
CLASS
  1
GSMANAGER
  2
AcMeGSManager
  3
AcMeServices
 90
        0
280
     0
281
     0
  0
CLASS
  1
AMDTINTERNALREACTOR
  2
AmdtInternalReactor
  3
AcMeServices
 90
        0
280
     0
281
     0
  0
CLASS
  1
ACMESTATEMGR
  2
AcMeStateMgr
  3
AcMeServices
 90
        0
280
     0
281
     0
  0
CLASS
  1
ACGREFMASTER
  2
AcGrefMaster
  3
AcAttribServices
 90
        0
280
     0
281
     0
  0
CLASS
  1
ACME_DATABASE
  2
AcMeDbDatabase
  3
AcMeServices
 90
        0
280
     0
281
     0
  0
CLASS
  1
ACRFINSADJUSTERMGR
  2
AcRfInsAdjusterMgr
  3
AcMeServices
 90
        0
280
     0
281
     0
  0
CLASS
  1
ACGREFACADMASTER
  2
AcGrefacadMaster
  3
AcGrefServices
 90
        0
280
     0
281
     0
  0
CLASS
  1
AMIMASTER
  2
AmiMaster
  3
AmiServices
 90
        0
280
     0
281
     0
  0
CLASS
  1
ACMDATADICTIONARY
  2
AcmDataDictionary
  3
"AcmSymBB|Product Description: AutoCAD Mechanical 2004 DX|Company: Autodesk"
 90
        0
280
     0
281
     0
  0
CLASS
  1
ACMDATAENTRYBLOCK
  2
AcmDataEntryBlock
  3
"AcmSymBB|Product Description: AutoCAD Mechanical 2004 DX|Company: Autodesk"
 90
        0
280
     0
281
     0
  0
CLASS
  1
ACIMSTRSYSVAR
  2
AcImStrSysVar
  3
AcMeServices
 90
        0
280
     0
281
     0
  0
CLASS
  1
ACMSTANDARDISO
  2
AcmStandardISO
  3
"Amdt_StdImp|Product Description: AutoCAD Mechanical 2004 DX|Company: Autodesk"
 90
        0
280
     0
281
     0
  0
CLASS
  1
AMGOBJPROPCFG
  2
AmgObjPropCfg
  3
"AmgLay|Product Description: AutoCAD Mechanical 2000|Company: Autodesk"
 90
        1
280
     0
281
     0
  0
CLASS
  1
AMDTEDGESTANDARDISO
  2
AmdtEdgeStdISO
  3
"Amdt_StdImp|Product Description: AutoCAD Mechanical 2004 DX|Company: Autodesk"
 90
        0
280
     0
281
     0
  0
CLASS
  1
ACMSURFSTANDARDISO
  2
AcmSurfTextStdISO
  3
"Amdt_StdImp|Product Description: AutoCAD Mechanical 2004 DX|Company: Autodesk"
 90
        0
280
     0
281
     0
  0
CLASS
  1
ACMFCFSTANDARDISO
  2
AcmFCFStdISO
  3
"Amdt_StdImp|Product Description: AutoCAD Mechanical 2004 DX|Company: Autodesk"
 90
        0
280
     0
281
     0
  0
CLASS
  1
ACMWELDSTANDARDISO
  2
AcmWeldingStdISO
  3
"Amdt_StdImp|Product Description: AutoCAD Mechanical 2004 DX|Company: Autodesk"
 90
        0
280
     0
281
     0
  0
CLASS
  1
ACMIDSTANDARDISO
  2
AcmIdStdISO
  3
"Amdt_StdImp|Product Description: AutoCAD Mechanical 2004 DX|Company: Autodesk"
 90
        0
280
     0
281
     0
  0
CLASS
  1
ACMDATUMSTANDARDISO
  2
AcmDatumStdISO
  3
"Amdt_StdImp|Product Description: AutoCAD Mechanical 2004 DX|Company: Autodesk"
 90
        0
280
     0
281
     0
  0
CLASS
  1
ACMBOMSTANDARDISO
  2
AcmBOMStdISO
  3
"Amdt_StdImp|Product Description: AutoCAD Mechanical 2004 DX|Company: Autodesk"
 90
        0
280
     0
281
     0
  0
CLASS
  1
ACMDETAILSTANDARDISO
  2
AmdtDetailSymStdISO
  3
"Amdt_StdImp|Product Description: AutoCAD Mechanical 2004 DX|Company: Autodesk"
 90
        0
280
     0
281
     0
  0
CLASS
  1
ACMSECTIONSTANDARDISO
  2
AmdtSectionSymStdISO
  3
"Amdt_StdImp|Product Description: AutoCAD Mechanical 2004 DX|Company: Autodesk"
 90
        0
280
     0
281
     0
  0
CLASS
  1
ACMCENTERLINESTANDARDISO
  2
AmdtCenterLineStdISO
  3
"Amdt_StdImp|Product Description: AutoCAD Mechanical 2004 DX|Company: Autodesk"
 90
        0
280
     0
281
     0
  0
CLASS
  1
ACMNOTESTANDARDISO
  2
AmdtNoteStdISO
  3
"Amdt_StdImp|Product Description: AutoCAD Mechanical 2004 DX|Company: Autodesk"
 90
        0
280
     0
281
     0
  0
CLASS
  1
ACAMGLAYSTD
  2
AcAmgLayStd
  3
"AcAmgLayStd|Product Description: AutoCAD Mechanical 2000|Company: Autodesk"
 90
        0
280
     0
281
     0
  0
CLASS
  1
ACAMGDIMSTD
  2
AcAmgDimStd
  3
"AcAmgDimStd|Product Description: AutoCAD Mechanical 2000|Company: Autodesk"
 90
        0
280
     0
281
     0
  0
CLASS
  1
ACAMGHOLECHARTSTDISO
  2
AcAmgHoleChartStdISO
  3
ACMSYMBB_MODULE_NAME
 90
        0
280
     0
281
     0
  0
CLASS
  1
ACAMGTITLESTD
  2
AcAmgTitleStd
  3
"TITLEAPP"
 90
        0
280
     0
281
     0
  0
CLASS
  1
LAYER_INDEX
  2
AcDbLayerIndex
  3
ObjectDBX Classes
 90
    32768
280
     0
281
     0
  0
CLASS
  1
IDBUFFER
  2
AcDbIdBuffer
  3
ObjectDBX Classes
 90
    32768
280
     0
281
     0
  0
CLASS
  1
DICTIONARYVAR
  2
AcDbDictionaryVar
  3
ObjectDBX Classes
 90
        0
280
     0
281
     0
  0
CLASS
  1
AM_DRAWING_MGR
  2
AcDmDwgMgr
  3
AcMechDwgViewMgmt
 90
        0
280
     0
281
     0
  0
CLASS
  1
AM_DWG_DOCUMENT
  2
AcDmDwgDocument
  3
AcMechDwgViewMgmt
 90
        0
280
     0
281
     0
  0
CLASS
  1
AM_DWG_SHEET
  2
AcDmSheet
  3
AcMechDwgViewMgmt
 90
        0
280
     0
281
     0
  0
CLASS
  1
AM_VIEWDIMPARMAP
  2
AcDmViewDimParMap
  3
AcMechDwgViewMgmt
 90
        0
280
     0
281
     0
  0
CLASS
  1
AM_DWGMGR_NAME
  2
AcDmDwgMgrName
  3
AcMechDwgViewMgmt
 90
        0
280
     0
281
     0
  0
CLASS
  1
AMDTMENUSTATEMGR
  2
AmdtMenuStateMgr
  3
McadcomServices
 90
        0
280
     0
281
     0
  0
CLASS
  1
AMDTMCOMMENUSTATE
  2
AmdtMcomMenuState
  3
McadcomServices
 90
        0
280
     0
281
     0
  0
CLASS
  1
MAPIAMMOUDLE
  2
MApiAmModule
  3
MApiAmServices
 90
        0
280
     0
281
     0
  0
CLASS
  1
AMDTADMENUSTATE
  2
AmdtAdMenuState
  3
DesignerServices
 90
        0
280
     0
281
     0
  0
CLASS
  1
ADAPPL
  2
AcAdAppl
  3
DesignerServices
 90
        0
280
     0
281
     0
  0
CLASS
  1
DEPMGR
  2
AcAdDepMgr
  3
DesignerServices
 90
        0
280
     0
281
     0
  0
CLASS
  1
PARAMMGR
  2
AcAdParamMgr
  3
DesignerServices
 90
        0
280
     0
281
     0
  0
CLASS
  1
PARAMSCOPE
  2
AcAdParamScope
  3
DesignerServices
 90
        0
280
     0
281
     0
  0
CLASS
  1
NAMEDAPPL
  2
AcAdNamedAppl
  3
DesignerServices
 90
        0
280
     0
281
     0
  0
CLASS
  1
AMDTDMMENUSTATE
  2
AmdtDmMenuState
  3
AcMechDwgViewMgmt
 90
        0
280
     0
281
     0
  0
CLASS
  1
AMDTAMMENUSTATE
  2
AmdtAmMenuState
  3
DesignerAssemblies
 90
        0
280
     0
281
     0
  0
CLASS
  1
ACAMPROJECT
  2
AcAmProject
  3
DesignerAssemblies
 90
        0
280
     0
281
     0
  0
CLASS
  1
ACAMGRCOMPDEF
  2
AcAmGrCompDef
  3
DesignerAssemblies
 90
        0
280
     0
281
     0
  0
CLASS
  1
ACCMCONTEXT
  2
AcCmContext
  3
DesignerAssemblies
 90
        0
280
     0
281
     0
  0
CLASS
  1
ACAMCOMPDEF
  2
AcAmCompDef
  3
DesignerAssemblies
 90
        0
280
     0
281
     0
  0
CLASS
  1
ACAMCOMPDEFMGR
  2
AcAmCompDefMgr
  3
DesignerAssemblies
 90
        0
280
     0
281
     0
  0
CLASS
  1
AMCONTEXTMGR
  2
AcAmContextMgr
  3
DesignerAssemblies
 90
        0
280
     0
281
     0
  0
CLASS
  1
ACAMCONTEXTMODELER
  2
AcAmContextModeler
  3
DesignerAssemblies
 90
        0
280
     0
281
     0
  0
CLASS
  1
ACMTHREADLINESTANDARDISO
  2
AmdtThreadLineStdISO
  3
"Amdt_StdImp|Product Description: AutoCAD Mechanical 2004 DX|Company: Autodesk"
 90
        0
280
     0
281
     0
  0
CLASS
  1
CATALOGSTATE
  2
AcAmCatalogState
  3
DesignerAssemblies
 90
        0
280
     0
281
     0
  0
CLASS
  1
ACAMGRCOMPDEFSET
  2
AcAmGrCompDefSet
  3
DesignerAssemblies
 90
        0
280
     0
281
     0
  0
CLASS
  1
AMDTBROWSERDBTAB
  2
AmdtBrowserDbTab
  3
McadcomServices
 90
        0
280
     0
281
     0
  0
CLASS
  1
CBROWSERAPPOBJECT
  2
CBrowserAppObject
  3
McadcomServices
 90
        0
280
     0
281
     0
  0
CLASS
  1
DM_PLACEHOLDER
  2
AcDmSelsetPlaceholder
  3
AcMechDwgViewMgmt
 90
        0
280
     0
281
     0
  0
CLASS
  1
TABLESTYLE
  2
AcDbTableStyle
  3
ObjectDBX Classes
 90
     2047
280
     0
281
     0
  0
CLASS
  1
VAACXREFPANELOBJECT
  2
VaAcXREFPanelObject
  3
VAAC_ADDIN
 90
    32768
280
     0
281
     0
  0
CLASS
  1
VAACIMAGEINVENTORY
  2
VaAcImageInventory
  3
VAAC_ADDIN
 90
    32768
280
     0
281
     0
  0
CLASS
  1
AMDTNOTETEMPLATEDB
  2
AmdtNoteTemplateDB
  3
AMDT_STDIMP_MODULE_NAME
 90
        0
280
     0
281
     0
  0
CLASS
  1
EXACXREFPANELOBJECT
  2
ExAcXREFPanelObject
  3
EXAC_ESW
 90
        0
280
     0
281
     0
  0
CLASS
  1
ACMSTANDARDANSI
  2
AcmStandardANSI
  3
"Amdt_StdImp|Product Description: AutoCAD Mechanical 2004 DX|Company: Autodesk"
 90
        0
280
     0
281
     0
  0
CLASS
  1
ACMSURFSTANDARDANSI
  2
AcmSurfTextStdANSI
  3
"Amdt_StdImp|Product Description: AutoCAD Mechanical 2004 DX|Company: Autodesk"
 90
        0
280
     0
281
     0
  0
CLASS
  1
ACMFCFSTANDARDANSI
  2
AcmFCFStdANSI
  3
"Amdt_StdImp|Product Description: AutoCAD Mechanical 2004 DX|Company: Autodesk"
 90
        0
280
     0
281
     0
  0
CLASS
  1
ACMWELDSTANDARDANSI
  2
AcmWeldingStdANSI
  3
"Amdt_StdImp|Product Description: AutoCAD Mechanical 2004 DX|Company: Autodesk"
 90
        0
280
     0
281
     0
  0
CLASS
  1
ACMIDSTANDARDANSI
  2
AcmIdStdANSI
  3
"Amdt_StdImp|Product Description: AutoCAD Mechanical 2004 DX|Company: Autodesk"
 90
        0
280
     0
281
     0
  0
CLASS
  1
ACMDATUMSTANDARDANSI
  2
AcmDatumStdANSI
  3
"Amdt_StdImp|Product Description: AutoCAD Mechanical 2004 DX|Company: Autodesk"
 90
        0
280
     0
281
     0
  0
CLASS
  1
ACMBOMSTANDARDANSI
  2
AcmBOMStdANSI
  3
"Amdt_StdImp|Product Description: AutoCAD Mechanical 2004 DX|Company: Autodesk"
 90
        0
280
     0
281
     0
  0
CLASS
  1
ACMDETAILSTANDARDANSI
  2
AmdtDetailSymStdANSI
  3
"Amdt_StdImp|Product Description: AutoCAD Mechanical 2004 DX|Company: Autodesk"
 90
        0
280
     0
281
     0
  0
CLASS
  1
ACMSECTIONSTANDARDANSI
  2
AmdtSectionSymStdANSI
  3
"Amdt_StdImp|Product Description: AutoCAD Mechanical 2004 DX|Company: Autodesk"
 90
        0
280
     0
281
     0
  0
CLASS
  1
ACMCENTERLINESTANDARDANSI
  2
AmdtCenterLineStdANSI
  3
"Amdt_StdImp|Product Description: AutoCAD Mechanical 2004 DX|Company: Autodesk"
 90
        0
280
     0
281
     0
  0
CLASS
  1
ACMTHREADLINESTANDARDANSI
  2
AmdtThreadLineStdANSI
  3
"Amdt_StdImp|Product Description: AutoCAD Mechanical 2004 DX|Company: Autodesk"
 90
        0
280
     0
281
     0
  0
CLASS
  1
ACMNOTESTANDARDANSI
  2
AmdtNoteStdANSI
  3
"Amdt_StdImp|Product Description: AutoCAD Mechanical 2004 DX|Company: Autodesk"
 90
        0
280
     0
281
     0
  0
CLASS
  1
ACAMGHOLECHARTSTDANSI
  2
AcAmgHoleChartStdANSI
  3
ACMSYMBB_MODULE_NAME
 90
        0
280
     0
281
     0
  0
CLASS
  1
ACAMGFILTERDAT
  2
AcAmgFilterDat
  3
"AcadM|Product Description: AutoCAD Mechanical 2000|Company: Autodesk"
 90
        0
280
     0
281
     0
  0
ENDSEC
  0
SECTION
  2
TABLES
  0
TABLE
  2
VPORT
  5
8
330
0
100
AcDbSymbolTable
 70
     3
  0
VPORT
  5
84A
330
8
100
AcDbSymbolTableRecord
100
AcDbViewportTableRecord
  2
*Active
 70
     0
 10
0.0
 20
0.0
 11
1.0
 21
1.0
 12
2071.724250363169
 22
1728.515184681122
 13
0.0
 23
0.0
 14
2.5
 24
2.5
 15
10.0
 25
10.0
 16
0.0
 26
0.0
 36
1.0
 17
0.0
 27
0.0
 37
0.0
 40
3996.735767127489
 41
1.629007633587786
 42
50.0
 43
0.0
 44
0.0
 50
0.0
 51
0.0
 71
     0
 72
   100
 73
     1
 74
     3
 75
     0
 76
     0
 77
     0
 78
     0
281
     0
 65
     1
110
0.0
120
0.0
130
0.0
111
1.0
121
0.0
131
0.0
112
0.0
122
1.0
132
0.0
 79
     0
146
0.0
  0
ENDTAB
  0
TABLE
  2
LTYPE
  5
5
330
0
100
AcDbSymbolTable
 70
    19
  0
LTYPE
  5
14
330
5
100
AcDbSymbolTableRecord
100
AcDbLinetypeTableRecord
  2
ByBlock
 70
     0
  3

 72
    65
 73
     0
 40
0.0
  0
LTYPE
  5
15
330
5
100
AcDbSymbolTableRecord
100
AcDbLinetypeTableRecord
  2
ByLayer
 70
     0
  3

 72
    65
 73
     0
 40
0.0
  0
LTYPE
  5
16
330
5
100
AcDbSymbolTableRecord
100
AcDbLinetypeTableRecord
  2
Continuous
 70
     0
  3
Solid line
 72
    65
 73
     0
 40
0.0
  0
LTYPE
  5
64
330
5
100
AcDbSymbolTableRecord
100
AcDbLinetypeTableRecord
  2
AM_ISO02W050
 70
     0
  3
__ __ __ __ __ __ __ __ __ __ __ __ __ __ __
 72
    65
 73
     2
 40
7.5
 49
6.0
 74
     0
 49
-1.5
 74
     0
  0
LTYPE
  5
65
330
5
100
AcDbSymbolTableRecord
100
AcDbLinetypeTableRecord
  2
AM_ISO08W050
 70
     0
  3
____ . ____ . ____ . ____ . ____ . ____ . ____
 72
    65
 73
     4
 40
18.0
 49
12.0
 74
     0
 49
-1.5
 74
     0
 49
3.0
 74
     0
 49
-1.5
 74
     0
  0
LTYPE
  5
66
330
5
100
AcDbSymbolTableRecord
100
AcDbLinetypeTableRecord
  2
AM_ISO09W050
 70
     0
  3
_____ . . _____ . . _____ . . ____ .. ____
 72
    65
 73
     6
 40
22.5
 49
12.0
 74
     0
 49
-1.5
 74
     0
 49
3.0
 74
     0
 49
-1.5
 74
     0
 49
3.0
 74
     0
 49
-1.5
 74
     0
  0
LTYPE
  5
67
330
5
100
AcDbSymbolTableRecord
100
AcDbLinetypeTableRecord
  2
Amconstr
 70
     0
  3
_______________________
 72
    65
 73
     2
 40
9999.0
 49
9999.0
 74
     0
 49
0.0
 74
     0
  0
LTYPE
  5
68
330
5
100
AcDbSymbolTableRecord
100
AcDbLinetypeTableRecord
  2
AM_ISO08W050x2
 70
     0
  3
__ . __ . __ . __ . __ . __
 72
    65
 73
     4
 40
9.0
 49
6.0
 74
     0
 49
-0.75
 74
     0
 49
1.5
 74
     0
 49
-0.75
 74
     0
  0
LTYPE
  5
69
330
5
100
AcDbSymbolTableRecord
100
AcDbLinetypeTableRecord
  2
AM_ISO02W050x2
 70
     0
  3
 _ _ _ _ _ _ _ _ _ _ _ _
 72
    65
 73
     2
 40
3.75
 49
3.0
 74
     0
 49
-0.75
 74
     0
  0
LTYPE
  5
6C
330
5
100
AcDbSymbolTableRecord
100
AcDbLinetypeTableRecord
  2
Amzigzag
 70
     0
  3
/\/-/\/-/\/-/\/-/\/-/\/
 72
    65
 73
     2
 40
11.0001
 49
0.0001
 74
     4
 75
   136
340
22C
 46
0.04
 50
0.0
 44
0.0
 45
0.0
 49
-11.0
 74
     0
  0
LTYPE
  5
7A
330
5
100
AcDbSymbolTableRecord
100
AcDbLinetypeTableRecord
  2
ACISOWELD
 70
     0
  3
_ _ _ _ _
 72
    65
 73
     2
 40
2.0
 49
2.0
 74
     0
 49
-1.0
 74
     0
  0
LTYPE
  5
7B
330
5
100
AcDbSymbolTableRecord
100
AcDbLinetypeTableRecord
  2
ACISOTGB
 70
     0
  3
__ . . __ . .
 72
    65
 73
     6
 40
9.0
 49
4.0
 74
     0
 49
-1.0
 74
     0
 49
1.0
 74
     0
 49
-1.0
 74
     0
 49
1.0
 74
     0
 49
-1.0
 74
     0
  0
LTYPE
  5
7C
330
5
100
AcDbSymbolTableRecord
100
AcDbLinetypeTableRecord
  2
ACISOTGL
 70
     0
  3
_ _ _ _ _
 72
    65
 73
     2
 40
3.0
 49
2.0
 74
     0
 49
-1.0
 74
     0
  0
LTYPE
  5
7E
330
5
100
AcDbSymbolTableRecord
100
AcDbLinetypeTableRecord
  2
CENTER
 70
     0
  3
__ . __
 72
    65
 73
     4
 40
7.0
 49
4.0
 74
     0
 49
-1.0
 74
     0
 49
1.0
 74
     0
 49
-1.0
 74
     0
  0
LTYPE
  5
D8
330
5
100
AcDbSymbolTableRecord
100
AcDbLinetypeTableRecord
  2
HIDDEN
 70
     0
  3
Hidden __ __ __ __ __ __ __ __ __ __ __ __ __ _
 72
    65
 73
     2
 40
9.524999999999998
 49
6.349999999999999
 74
     0
 49
-3.174999999999999
 74
     0
  0
LTYPE
  5
D9
330
5
100
AcDbSymbolTableRecord
100
AcDbLinetypeTableRecord
  2
PHANTOM2
 70
     0
  3
Phantom (.5x) ___ _ _ ___ _ _ ___ _ _ ___ _ _
 72
    65
 73
     6
 40
31.75
 49
15.875
 74
     0
 49
-3.174999999999999
 74
     0
 49
3.174999999999999
 74
     0
 49
-3.174999999999999
 74
     0
 49
3.174999999999999
 74
     0
 49
-3.174999999999999
 74
     0
  0
LTYPE
  5
32B
330
5
100
AcDbSymbolTableRecord
100
AcDbLinetypeTableRecord
  2
HIDDEN2
 70
     0
  3
Hidden (.5x) _ _ _ _ _ _ _ _ _ _ _ _ _ _ _ _ _
 72
    65
 73
     2
 40
0.1875
 49
0.125
 74
     0
 49
-0.0625
 74
     0
  0
LTYPE
  5
32C
330
5
100
AcDbSymbolTableRecord
100
AcDbLinetypeTableRecord
  2
CENTER2
 70
     0
  3
Center (.5x) ___ _ ___ _ ___ _ ___ _ ___ _ ___
 72
    65
 73
     4
 40
1.125
 49
0.75
 74
     0
 49
-0.125
 74
     0
 49
0.125
 74
     0
 49
-0.125
 74
     0
  0
LTYPE
  5
32D
330
5
100
AcDbSymbolTableRecord
100
AcDbLinetypeTableRecord
  2
Amzigzag2
 70
     0
  3
/\/-/\/-/\/-/\/-/\/-/\/
 72
    65
 73
     2
 40
0.4401
 49
0.0001
 74
     4
 75
   135
340
6B
 46
0.0016
 50
0.0
 44
0.0
 45
0.0
 49
-0.4400000000000001
 74
     0
  0
LTYPE
  5
32E
330
5
100
AcDbSymbolTableRecord
100
AcDbLinetypeTableRecord
  2
ACANSTGB
 70
     0
  3
__ . . __ . .
 72
    65
 73
     6
 40
0.35433070866
 49
0.15748031496
 74
     0
 49
-0.03937007874
 74
     0
 49
0.03937007874
 74
     0
 49
-0.03937007874
 74
     0
 49
0.03937007874
 74
     0
 49
-0.03937007874
 74
     0
  0
LTYPE
  5
32F
330
5
100
AcDbSymbolTableRecord
100
AcDbLinetypeTableRecord
  2
ACANSTGL
 70
     0
  3
_ _ _ _ _
 72
    65
 73
     2
 40
0.11811023622
 49
0.07874015748
 74
     0
 49
-0.03937007874
 74
     0
  0
ENDTAB
  0
TABLE
  2
LAYER
  5
2
330
0
100
AcDbSymbolTable
 70
     7
  0
LAYER
  5
10
330
2
100
AcDbSymbolTableRecord
100
AcDbLayerTableRecord
  2
0
 70
     0
 62
     7
  6
Continuous
370
    -3
390
F
  0
LAYER
  5
330
330
2
100
AcDbSymbolTableRecord
100
AcDbLayerTableRecord
  2
EMNE
 70
     0
 62
     7
  6
Continuous
370
    -3
390
F
  0
LAYER
  5
331
330
2
100
AcDbSymbolTableRecord
100
AcDbLayerTableRecord
  2
MIDT
 70
     0
 62
     1
  6
CENTER
370
    -3
390
F
  0
LAYER
  5
332
330
2
100
AcDbSymbolTableRecord
100
AcDbLayerTableRecord
  2
MAAL
 70
     0
 62
     4
  6
Continuous
370
    -3
390
F
  0
LAYER
  5
333
330
2
100
AcDbSymbolTableRecord
100
AcDbLayerTableRecord
  2
Defpoints
 70
     0
 62
     7
  6
Continuous
290
     0
370
    -3
390
F
  0
LAYER
  5
334
330
2
100
AcDbSymbolTableRecord
100
AcDbLayerTableRecord
  2
STIPLET
 70
     0
 62
     3
  6
HIDDEN
370
    -3
390
F
  0
LAYER
  5
335
330
2
100
AcDbSymbolTableRecord
100
AcDbLayerTableRecord
  2
AM_5
 70
     0
 62
     3
  6
Continuous
370
    25
390
F
  0
ENDTAB
  0
TABLE
  2
STYLE
  5
3
330
0
100
AcDbSymbolTable
 70
    11
  0
STYLE
  5
11
330
3
100
AcDbSymbolTableRecord
100
AcDbTextStyleTableRecord
  2
STANDARD
 70
     0
 40
0.0
 41
1.0
 50
0.0
 71
     0
 42
2.5
  3
ISOCP.SHX
  4

  0
STYLE
  5
6B
330
3
100
AcDbSymbolTableRecord
100
AcDbTextStyleTableRecord
  2

 70
     1
 40
0.0
 41
1.0
 50
0.0
 71
     0
 42
2.5
  3
ltypeshp.shx
  4

  0
STYLE
  5
6D
330
3
100
AcDbSymbolTableRecord
100
AcDbTextStyleTableRecord
  2
ACISOTS
 70
     0
 40
1.0
 41
1.0
 50
0.0
 71
     0
 42
2.5
  3
isocp.shx
  4

  0
STYLE
  5
79
330
3
100
AcDbSymbolTableRecord
100
AcDbTextStyleTableRecord
  2
ACISOGDT
 70
     0
 40
0.0
 41
1.0
 50
0.0
 71
     0
 42
2.5
  3
AMGDT
  4

  0
STYLE
  5
1ED
330
3
100
AcDbSymbolTableRecord
100
AcDbTextStyleTableRecord
  2
USER1
 70
     0
 40
0.0
 41
1.0
 50
0.0
 71
     0
 42
2.5
  3
TXT.SHX
  4

  0
STYLE
  5
1EE
330
3
100
AcDbSymbolTableRecord
100
AcDbTextStyleTableRecord
  2
USER2
 70
     0
 40
0.0
 41
1.0
 50
0.0
 71
     0
 42
2.5
  3
SIMPLEX.SHX
  4

  0
STYLE
  5
1EF
330
3
100
AcDbSymbolTableRecord
100
AcDbTextStyleTableRecord
  2
USER3
 70
     0
 40
0.0
 41
1.0
 50
0.0
 71
     0
 42
2.5
  3
ITALIC.SHX
  4

  0
STYLE
  5
22C
330
3
100
AcDbSymbolTableRecord
100
AcDbTextStyleTableRecord
  2

 70
     1
 40
0.0
 41
1.0
 50
0.0
 71
     0
 42
2.5
  3
genltshp.shx
  4

  0
STYLE
  5
336
330
3
100
AcDbSymbolTableRecord
100
AcDbTextStyleTableRecord
  2
ROMANS
 70
     0
 40
0.0
 41
1.0
 50
0.0
 71
     0
 42
50.0
  3
romans
  4

  0
STYLE
  5
337
330
3
100
AcDbSymbolTableRecord
100
AcDbTextStyleTableRecord
  2
ACANSTS
 70
     0
 40
1.0
 41
1.0
 50
0.0
 71
     0
 42
50.0
  3
romans.shx
  4

  0
STYLE
  5
338
330
3
100
AcDbSymbolTableRecord
100
AcDbTextStyleTableRecord
  2
ACANSGDT
 70
     0
 40
0.0
 41
1.0
 50
0.0
 71
     0
 42
50.0
  3
amgdtans.shx
  4

  0
ENDTAB
  0
TABLE
  2
VIEW
  5
6
330
0
100
AcDbSymbolTable
 70
     0
  0
ENDTAB
  0
TABLE
  2
UCS
  5
7
330
0
100
AcDbSymbolTable
 70
     0
  0
ENDTAB
  0
TABLE
  2
APPID
  5
9
330
0
100
AcDbSymbolTable
 70
    11
  0
APPID
  5
12
330
9
100
AcDbSymbolTableRecord
100
AcDbRegAppTableRecord
  2
ACAD
 70
     0
  0
APPID
  5
46
330
9
100
AcDbSymbolTableRecord
100
AcDbRegAppTableRecord
  2
MCAD_NO_VIS
 70
     0
  0
APPID
  5
47
330
9
100
AcDbSymbolTableRecord
100
AcDbRegAppTableRecord
  2
ACAD_TEMP_GRAPHIC
 70
     0
  0
APPID
  5
58
330
9
100
AcDbSymbolTableRecord
100
AcDbRegAppTableRecord
  2
ACATTRIBSERVICES
 70
     0
  0
APPID
  5
EE
330
9
100
AcDbSymbolTableRecord
100
AcDbRegAppTableRecord
  2
AD_DRAW
 70
     0
  0
APPID
  5
10C
330
9
100
AcDbSymbolTableRecord
100
AcDbRegAppTableRecord
  2
DESIGNERASSEMBLIES
 70
     0
  0
APPID
  5
111
330
9
100
AcDbSymbolTableRecord
100
AcDbRegAppTableRecord
  2
ACADM_DIM_EDIT
 70
     0
  0
APPID
  5
112
330
9
100
AcDbSymbolTableRecord
100
AcDbRegAppTableRecord
  2
AMDT_DM_ADJ
 70
     0
  0
APPID
  5
1A3
330
9
100
AcDbSymbolTableRecord
100
AcDbRegAppTableRecord
  2
ACAD_DSTYLE_DIMARC_LENGTH_SYMBOL
 70
     0
  0
APPID
  5
1A4
330
9
100
AcDbSymbolTableRecord
100
AcDbRegAppTableRecord
  2
ACAD_DSTYLE_DIMJOGGED_JOGANGLE_SYMBOL
 70
     0
  0
APPID
  5
340
330
9
100
AcDbSymbolTableRecord
100
AcDbRegAppTableRecord
  2
GENIUS_GENDTOL_13
 70
     0
  0
ENDTAB
  0
TABLE
  2
DIMSTYLE
  5
A
330
0
100
AcDbSymbolTable
 70
    15
100
AcDbDimStyleTable
 71
     1
340
81
  0
DIMSTYLE
105
27
330
A
100
AcDbSymbolTableRecord
100
AcDbDimStyleTableRecord
  2
ISO-25
 70
     0
 41
2.5
 42
0.625
 43
3.75
 44
1.25
 73
     0
 74
     0
 77
     1
 78
     8
140
2.5
141
2.5
143
0.03937007874016
147
0.625
171
     3
172
     1
271
     2
272
     2
274
     3
278
    44
283
     0
284
     8
340
11
  0
DIMSTYLE
105
81
330
A
100
AcDbSymbolTableRecord
100
AcDbDimStyleTableRecord
  2
AM_ISO
 70
     0
  4
"
 41
2.5
 42
1.0
 43
10.0
 44
1.0
 47
0.1
 48
0.1
 73
     0
 74
     0
 77
     1
 78
     8
 79
     2
140
3.5
141
0.0
143
0.0393701
146
0.71
147
1.5
172
     1
176
   256
177
   256
178
     2
271
     2
272
     3
274
     4
283
     0
284
     8
340
11
371
    -1
372
    -1
1001
ACAD_DSTYLE_DIMARC_LENGTH_SYMBOL
1070
   379
1070
     1
1001
ACAD_DSTYLE_DIMJOGGED_JOGANGLE_SYMBOL
1070
   384
1040
0.7853981633974483
  0
DIMSTYLE
105
82
330
A
100
AcDbSymbolTableRecord
100
AcDbDimStyleTableRecord
  2
AM_ISO$3
 70
     0
  4
"
 41
2.5
 42
1.0
 43
10.0
 44
1.0
 47
0.1
 48
0.1
 73
     0
 77
     1
 78
     8
 79
     2
140
3.5
141
0.0
143
0.0393701
146
0.71
147
1.5
176
   256
177
   256
178
     2
271
     2
272
     3
274
     4
283
     0
284
     8
288
     1
289
     0
340
11
371
    -1
372
    -1
1001
ACAD_DSTYLE_DIMARC_LENGTH_SYMBOL
1070
   379
1070
     1
1001
ACAD_DSTYLE_DIMJOGGED_JOGANGLE_SYMBOL
1070
   384
1040
0.7853981633974483
  0
DIMSTYLE
105
83
330
A
100
AcDbSymbolTableRecord
100
AcDbDimStyleTableRecord
  2
AM_ISO$4
 70
     0
  4
"
 41
2.5
 42
1.0
 43
10.0
 44
1.0
 47
0.1
 48
0.1
 73
     0
 77
     1
 78
     8
 79
     2
140
3.5
141
0.0
143
0.0393701
146
0.71
147
1.5
176
   256
177
   256
178
     2
271
     2
272
     3
274
     4
283
     0
284
     8
288
     1
289
     0
340
11
371
    -1
372
    -1
1001
ACAD_DSTYLE_DIMARC_LENGTH_SYMBOL
1070
   379
1070
     1
1001
ACAD_DSTYLE_DIMJOGGED_JOGANGLE_SYMBOL
1070
   384
1040
0.7853981633974483
  0
DIMSTYLE
105
84
330
A
100
AcDbSymbolTableRecord
100
AcDbDimStyleTableRecord
  2
AM_ISO$6
 70
     0
  4
"
 41
2.5
 42
1.0
 43
10.0
 44
1.0
 47
0.1
 48
0.1
 73
     0
 74
     0
 78
     8
 79
     2
140
3.5
141
0.0
143
0.0393701
146
0.71
147
1.5
172
     1
176
   256
177
   256
178
     2
271
     2
272
     3
274
     4
283
     0
284
     8
340
11
371
    -1
372
    -1
1001
ACAD_DSTYLE_DIMARC_LENGTH_SYMBOL
1070
   379
1070
     1
1001
ACAD_DSTYLE_DIMJOGGED_JOGANGLE_SYMBOL
1070
   384
1040
0.7853981633974483
  0
DIMSTYLE
105
85
330
A
100
AcDbSymbolTableRecord
100
AcDbDimStyleTableRecord
  2
AM_ISO$7
 70
     0
  4
"
 41
2.5
 42
1.0
 43
10.0
 44
1.0
 47
0.1
 48
0.1
 73
     0
 74
     0
 77
     1
 78
     8
 79
     2
140
5.0
141
0.0
143
0.0393701
146
0.71
147
1.5
172
     1
176
   256
177
   256
178
     2
271
     2
272
     3
274
     4
283
     0
284
     8
340
11
371
    -1
372
    -1
1001
ACAD_DSTYLE_DIMARC_LENGTH_SYMBOL
1070
   379
1070
     1
1001
ACAD_DSTYLE_DIMJOGGED_JOGANGLE_SYMBOL
1070
   384
1040
0.7853981633974483
  0
DIMSTYLE
105
86
330
A
100
AcDbSymbolTableRecord
100
AcDbDimStyleTableRecord
  2
AM_ISO$SF
 70
     0
  4
"
 41
2.5
 42
1.0
 43
10.0
 44
1.0
 47
0.1
 48
0.1
 73
     0
 74
     0
 75
     1
 76
     1
 77
     1
 78
     8
 79
     2
140
3.5
141
0.0
143
0.0393701
146
0.71
147
1.5
172
     1
176
   256
177
   256
178
     2
271
     2
272
     3
274
     4
283
     0
284
     8
340
11
371
    -1
372
    -1
1001
ACAD_DSTYLE_DIMARC_LENGTH_SYMBOL
1070
   379
1070
     1
1001
ACAD_DSTYLE_DIMJOGGED_JOGANGLE_SYMBOL
1070
   384
1040
0.7853981633974483
  0
DIMSTYLE
105
8B
330
A
100
AcDbSymbolTableRecord
100
AcDbDimStyleTableRecord
  2
AM_ISO$SH
 70
     0
  4
"
 41
2.5
 42
1.0
 43
10.0
 44
1.0
 47
0.1
 48
0.1
 73
     0
 74
     0
 75
     1
 76
     1
 77
     1
 78
     8
 79
     2
140
3.5
141
0.0
143
0.0393701
144
2.0
146
0.71
147
1.5
172
     1
173
     1
176
   256
177
   256
178
     2
271
     2
272
     3
274
     4
283
     0
284
     8
340
11
343
87
371
    -1
372
    -1
1001
ACAD_DSTYLE_DIMARC_LENGTH_SYMBOL
1070
   379
1070
     1
1001
ACAD_DSTYLE_DIMJOGGED_JOGANGLE_SYMBOL
1070
   384
1040
0.7853981633974483
  0
DIMSTYLE
105
339
102
{ACAD_REACTORS
330
5C1
330
624
330
626
330
64D
330
64E
330
6B0
330
6B1
330
50B
330
50C
330
50D
330
510
330
511
102
}
330
A
100
AcDbSymbolTableRecord
100
AcDbDimStyleTableRecord
  2
ROPOX
 70
     0
 40
10.0
 41
1.5
 42
2.0
 43
0.0
 44
2.0
 73
     0
 74
     0
 77
     1
 78
     8
140
3.5
141
0.0
147
1.5
172
     1
173
     1
176
     1
177
     1
178
     4
289
     1
340
336
341
289
342
289
343
289
344
289
  0
DIMSTYLE
105
33A
330
A
100
AcDbSymbolTableRecord
100
AcDbDimStyleTableRecord
  2
AM_ANSI
 70
     0
  4
mm
 41
0.1
 42
0.05
 43
0.5
 44
0.1
 47
0.1
 48
0.1
 78
     7
 79
     2
140
0.12
141
0.0
146
0.71
147
0.06
176
   256
177
   256
178
     2
274
     4
284
     7
340
11
371
    -1
372
    -1
1001
ACAD_DSTYLE_DIMARC_LENGTH_SYMBOL
1070
   379
1070
     1
1001
ACAD_DSTYLE_DIMJOGGED_JOGANGLE_SYMBOL
1070
   384
1040
0.7853981633974483
  0
DIMSTYLE
105
33B
330
A
100
AcDbSymbolTableRecord
100
AcDbDimStyleTableRecord
  2
AM_ANSI$3
 70
     0
  4
mm
 41
0.1
 42
0.05
 43
0.5
 44
0.1
 47
0.1
 48
0.1
 78
     7
 79
     2
140
0.12
141
0.0
146
0.71
147
0.06
176
   256
177
   256
178
     2
274
     4
284
     7
288
     1
289
     0
340
11
371
    -1
372
    -1
1001
ACAD_DSTYLE_DIMARC_LENGTH_SYMBOL
1070
   379
1070
     1
1001
ACAD_DSTYLE_DIMJOGGED_JOGANGLE_SYMBOL
1070
   384
1040
0.7853981633974483
  0
DIMSTYLE
105
33C
330
A
100
AcDbSymbolTableRecord
100
AcDbDimStyleTableRecord
  2
AM_ANSI$4
 70
     0
  4
mm
 41
0.1
 42
0.05
 43
0.5
 44
0.1
 47
0.1
 48
0.1
 78
     7
 79
     2
140
0.12
141
0.0
146
0.71
147
0.06
176
   256
177
   256
178
     2
274
     4
284
     7
288
     1
289
     0
340
11
371
    -1
372
    -1
1001
ACAD_DSTYLE_DIMARC_LENGTH_SYMBOL
1070
   379
1070
     1
1001
ACAD_DSTYLE_DIMJOGGED_JOGANGLE_SYMBOL
1070
   384
1040
0.7853981633974483
  0
DIMSTYLE
105
33D
330
A
100
AcDbSymbolTableRecord
100
AcDbDimStyleTableRecord
  2
AM_ANSI$7
 70
     0
  4
mm
 41
0.1
 42
0.05
 43
0.5
 44
0.1
 47
0.1
 48
0.1
 78
     7
 79
     2
140
0.24
141
0.0
146
0.71
147
0.06
176
   256
177
   256
178
     2
274
     4
284
     7
340
11
371
    -1
372
    -1
1001
ACAD_DSTYLE_DIMARC_LENGTH_SYMBOL
1070
   379
1070
     1
1001
ACAD_DSTYLE_DIMJOGGED_JOGANGLE_SYMBOL
1070
   384
1040
0.7853981633974483
  0
DIMSTYLE
105
33E
330
A
100
AcDbSymbolTableRecord
100
AcDbDimStyleTableRecord
  2
AM_ANSI$SF
 70
     0
  4
mm
 41
0.1
 42
0.05
 43
0.5
 44
0.1
 47
0.1
 48
0.1
 75
     1
 76
     1
 78
     7
 79
     2
140
0.12
141
0.0
146
0.71
147
0.06
176
   256
177
   256
178
     2
274
     4
284
     7
340
11
371
    -1
372
    -1
1001
ACAD_DSTYLE_DIMARC_LENGTH_SYMBOL
1070
   379
1070
     1
1001
ACAD_DSTYLE_DIMJOGGED_JOGANGLE_SYMBOL
1070
   384
1040
0.7853981633974483
  0
DIMSTYLE
105
33F
330
A
100
AcDbSymbolTableRecord
100
AcDbDimStyleTableRecord
  2
AM_ANSI$SH
 70
     0
  4
mm
 41
0.1
 42
0.05
 43
0.5
 44
0.1
 47
0.1
 48
0.1
 75
     1
 76
     1
 78
     7
 79
     2
140
0.12
141
0.0
146
0.71
147
0.06
173
     1
176
   256
177
   256
178
     2
274
     4
284
     7
340
11
343
87
371
    -1
372
    -1
1001
ACAD_DSTYLE_DIMARC_LENGTH_SYMBOL
1070
   379
1070
     1
1001
ACAD_DSTYLE_DIMJOGGED_JOGANGLE_SYMBOL
1070
   384
1040
0.7853981633974483
  0
ENDTAB
  0
TABLE
  2
BLOCK_RECORD
  5
1
330
0
100
AcDbSymbolTable
 70
    29
  0
BLOCK_RECORD
  5
1F
102
{ACAD_XDICTIONARY
360
8F
102
}
330
1
100
AcDbSymbolTableRecord
100
AcDbBlockTableRecord
  2
*Model_Space
340
22
  0
BLOCK_RECORD
  5
1B
330
1
100
AcDbSymbolTableRecord
100
AcDbBlockTableRecord
  2
*Paper_Space
340
1E
  0
BLOCK_RECORD
  5
23
330
1
100
AcDbSymbolTableRecord
100
AcDbBlockTableRecord
  2
*Paper_Space0
340
26
  0
BLOCK_RECORD
  5
87
330
1
100
AcDbSymbolTableRecord
100
AcDbBlockTableRecord
  2
GENAXEH
340
0
  0
BLOCK_RECORD
  5
289
330
1
100
AcDbSymbolTableRecord
100
AcDbBlockTableRecord
  2
PILE1
340
0
102
{BLKREFS
331
318
331
319
331
324
331
325
331
2C4
331
2C5
331
2AC
331
2AD
331
2A0
331
2A1
331
2DC
331
2DD
331
2D0
331
2D1
331
2B8
331
2B9
331
30C
331
30D
331
2E8
331
2E9
331
300
331
301
331
2F4
331
2F5
331
7B2
331
7B3
331
7BC
331
7BD
331
7C8
331
7C9
331
7D2
331
7D3
331
7DC
331
7DD
331
7E6
331
7E7
331
7F0
331
7F1
331
7FA
331
7FB
331
804
331
805
331
80E
331
80F
331
818
331
819
331
822
331
823
102
}
  0
BLOCK_RECORD
  5
28F
330
1
100
AcDbSymbolTableRecord
100
AcDbBlockTableRecord
  2
*X4
340
0
102
{BLKREFS
331
28D
331
618
331
61B
331
690
331
695
102
}
  0
BLOCK_RECORD
  5
6B2
330
1
100
AcDbSymbolTableRecord
100
AcDbBlockTableRecord
  2
*D17
340
0
  0
BLOCK_RECORD
  5
6BC
330
1
100
AcDbSymbolTableRecord
100
AcDbBlockTableRecord
  2
*D18
340
0
  0
BLOCK_RECORD
  5
6C6
330
1
100
AcDbSymbolTableRecord
100
AcDbBlockTableRecord
  2
*D19
340
0
  0
BLOCK_RECORD
  5
6D0
330
1
100
AcDbSymbolTableRecord
100
AcDbBlockTableRecord
  2
*D20
340
0
  0
BLOCK_RECORD
  5
6DA
330
1
100
AcDbSymbolTableRecord
100
AcDbBlockTableRecord
  2
*D21
340
0
  0
BLOCK_RECORD
  5
6E4
330
1
100
AcDbSymbolTableRecord
100
AcDbBlockTableRecord
  2
*D22
340
0
  0
BLOCK_RECORD
  5
6EE
330
1
100
AcDbSymbolTableRecord
100
AcDbBlockTableRecord
  2
*D23
340
0
  0
BLOCK_RECORD
  5
6F8
330
1
100
AcDbSymbolTableRecord
100
AcDbBlockTableRecord
  2
*D24
340
0
  0
BLOCK_RECORD
  5
702
330
1
100
AcDbSymbolTableRecord
100
AcDbBlockTableRecord
  2
*D25
340
0
  0
BLOCK_RECORD
  5
70C
330
1
100
AcDbSymbolTableRecord
100
AcDbBlockTableRecord
  2
*D26
340
0
  0
BLOCK_RECORD
  5
716
330
1
100
AcDbSymbolTableRecord
100
AcDbBlockTableRecord
  2
*D27
340
0
  0
BLOCK_RECORD
  5
720
330
1
100
AcDbSymbolTableRecord
100
AcDbBlockTableRecord
  2
*D28
340
0
  0
ENDTAB
  0
ENDSEC
  0
SECTION
  2
BLOCKS
  0
BLOCK
  5
20
330
1F
100
AcDbEntity
  8
0
100
AcDbBlockBegin
  2
*Model_Space
 70
     0
 10
0.0
 20
0.0
 30
0.0
  3
*Model_Space
  1

  0
ENDBLK
  5
21
330
1F
100
AcDbEntity
  8
0
100
AcDbBlockEnd
  0
BLOCK
  5
1C
330
1B
100
AcDbEntity
 67
     1
  8
0
100
AcDbBlockBegin
  2
*Paper_Space
 70
     0
 10
0.0
 20
0.0
 30
0.0
  3
*Paper_Space
  1

  0
ENDBLK
  5
1D
330
1B
100
AcDbEntity
 67
     1
  8
0
100
AcDbBlockEnd
  0
BLOCK
  5
24
330
23
100
AcDbEntity
 67
     1
  8
0
100
AcDbBlockBegin
  2
*Paper_Space0
 70
     0
 10
0.0
 20
0.0
 30
0.0
  3
*Paper_Space0
  1

  0
ENDBLK
  5
25
330
23
100
AcDbEntity
 67
     1
  8
0
100
AcDbBlockEnd
  0
BLOCK
  5
89
330
87
100
AcDbEntity
  8
0
100
AcDbBlockBegin
  2
GENAXEH
 70
     0
 10
0.0
 20
0.0
 30
0.0
  3
GENAXEH
  1

  0
LINE
  5
88
330
87
100
AcDbEntity
  8
0
100
AcDbLine
 10
-1.0
 20
0.0
 30
0.0
 11
1.0
 21
0.0
 31
0.0
  0
ENDBLK
  5
8A
330
87
100
AcDbEntity
  8
0
100
AcDbBlockEnd
  0
BLOCK
  5
28A
330
289
100
AcDbEntity
  8
0
100
AcDbBlockBegin
  2
PILE1
 70
     0
 10
0.0
 20
0.0
 30
0.0
  3
PILE1
  1

  0
LINE
  5
28B
330
289
100
AcDbEntity
  8
MAAL
 62
     3
100
AcDbLine
 10
0.0
 20
0.0
 30
0.0
 11
-3.414931220634656
 21
-0.5691552034391237
 31
0.0
  0
LINE
  5
28C
330
289
100
AcDbEntity
  8
MAAL
 62
     3
100
AcDbLine
 10
0.0
 20
0.0
 30
0.0
 11
-3.414931220634656
 21
0.6033740670276302
 31
0.0
  0
INSERT
  5
28D
330
289
100
AcDbEntity
  8
MAAL
 62
     3
100
AcDbBlockReference
  2
*X4
 10
0.0
 20
0.0
 30
0.0
1001
ACAD
1000
HATCH
1002
{
1070
    16
1000
LINE
1040
1.0
1040
0.0
1002
}
  0
ENDBLK
  5
28E
330
289
100
AcDbEntity
  8
0
100
AcDbBlockEnd
  0
BLOCK
  5
290
330
28F
100
AcDbEntity
  8
0
100
AcDbBlockBegin
  2
*X4
 70
     1
 10
0.0
 20
0.0
 30
0.0
  3
*X4
  1

  0
LINE
  5
291
330
28F
100
AcDbEntity
  8
0
 62
     0
100
AcDbLine
 10
-3.414931220634656
 20
0.0
 30
0.0
 11
0.0
 21
0.0
 31
0.0
  0
LINE
  5
292
330
28F
100
AcDbEntity
  8
0
 62
     0
100
AcDbLine
 10
-3.414931220634656
 20
0.125
 30
0.0
 11
-0.7074656103172971
 21
0.125
 31
0.0
  0
LINE
  5
293
330
28F
100
AcDbEntity
  8
0
 62
     0
100
AcDbLine
 10
-3.414931220634656
 20
0.25
 30
0.0
 11
-1.414931220634594
 21
0.25
 31
0.0
  0
LINE
  5
294
330
28F
100
AcDbEntity
  8
0
 62
     0
100
AcDbLine
 10
-3.414931220634656
 20
0.375
 30
0.0
 11
-2.122396830951891
 21
0.375
 31
0.0
  0
LINE
  5
295
330
28F
100
AcDbEntity
  8
0
 62
     0
100
AcDbLine
 10
-3.414931220634656
 20
0.5
 30
0.0
 11
-2.829862441269188
 21
0.5
 31
0.0
  0
LINE
  5
296
330
28F
100
AcDbEntity
  8
0
 62
     0
100
AcDbLine
 10
-3.414931220634656
 20
-0.125
 30
0.0
 11
-0.7499999999999813
 21
-0.125
 31
0.0
  0
LINE
  5
297
330
28F
100
AcDbEntity
  8
0
 62
     0
100
AcDbLine
 10
-3.414931220634656
 20
-0.25
 30
0.0
 11
-1.499999999999962
 21
-0.25
 31
0.0
  0
LINE
  5
298
330
28F
100
AcDbEntity
  8
0
 62
     0
100
AcDbLine
 10
-3.414931220634656
 20
-0.375
 30
0.0
 11
-2.249999999999943
 21
-0.375
 31
0.0
  0
LINE
  5
299
330
28F
100
AcDbEntity
  8
0
 62
     0
100
AcDbLine
 10
-3.414931220634656
 20
-0.5
 30
0.0
 11
-2.999999999999925
 21
-0.5
 31
0.0
  0
ENDBLK
  5
29A
330
28F
100
AcDbEntity
  8
0
100
AcDbBlockEnd
  0
BLOCK
  5
796
330
6B2
100
AcDbEntity
  8
0
100
AcDbBlockBegin
  2
*D17
 70
     1
 10
0.0
 20
0.0
 30
0.0
  3
*D17
  1

  0
LINE
  5
7AF
330
6B2
100
AcDbEntity
  8
MAAL
  6
Continuous
 62
     1
370
    -2
100
AcDbLine
 10
1259.313446717295
 20
3127.266192822849
 30
0.0
 11
1259.313446717295
 21
3240.798296445561
 31
0.0
  0
LINE
  5
7B0
330
6B2
100
AcDbEntity
  8
MAAL
  6
Continuous
 62
     1
370
    -2
100
AcDbLine
 10
1969.313446717295
 20
3127.266192822853
 30
0.0
 11
1969.313446717295
 21
3240.798296445561
 31
0.0
  0
LINE
  5
7B1
330
6B2
100
AcDbEntity
  8
MAAL
  6
Continuous
 62
     1
370
    -2
100
AcDbLine
 10
1274.313446717295
 20
3220.798296445562
 30
0.0
 11
1954.313446717295
 21
3220.798296445562
 31
0.0
  0
INSERT
  5
7B2
330
6B2
100
AcDbEntity
  8
MAAL
  6
Continuous
 62
     1
370
    -2
100
AcDbBlockReference
  2
PILE1
 10
1259.313446717295
 20
3220.798296445562
 30
0.0
 41
15.0
 42
15.0
 43
15.0
 50
180.0
  0
INSERT
  5
7B3
330
6B2
100
AcDbEntity
  8
MAAL
  6
Continuous
 62
     1
370
    -2
100
AcDbBlockReference
  2
PILE1
 10
1969.313446717295
 20
3220.798296445562
 30
0.0
 41
15.0
 42
15.0
 43
15.0
  0
MTEXT
  5
7B4
330
6B2
100
AcDbEntity
  8
MAAL
  6
Continuous
 62
     4
100
AcDbMText
 10
1614.313446717295
 20
3253.298296445561
 30
0.0
 40
35.0
 41
0.0
 71
     5
 72
     1
  1
\A1;710
  7
ROMANS
 73
     1
 44
1.0
1001
ACAD
1000
MTEXTBEGIN
1070
    73
1070
     1
1070
    44
1040
1.0
1070
    74
1070
     0
1000
MTEXTEND
  0
POINT
  5
7B5
330
6B2
100
AcDbEntity
  8
Defpoints
  6
Continuous
 62
     0
100
AcDbPoint
 10
1259.313446717295
 20
3107.266192822849
 30
272.3935238164516
  0
POINT
  5
7B6
330
6B2
100
AcDbEntity
  8
Defpoints
  6
Continuous
 62
     0
100
AcDbPoint
 10
1969.313446717295
 20
3107.266192822853
 30
272.3935238164477
  0
POINT
  5
7B7
330
6B2
100
AcDbEntity
  8
Defpoints
  6
Continuous
 62
     0
100
AcDbPoint
 10
1969.313446717295
 20
3220.798296445562
 30
0.0
  0
ENDBLK
  5
797
330
6B2
100
AcDbEntity
  8
0
100
AcDbBlockEnd
  0
BLOCK
  5
798
330
6BC
100
AcDbEntity
  8
0
100
AcDbBlockBegin
  2
*D18
 70
     1
 10
0.0
 20
0.0
 30
0.0
  3
*D18
  1

  0
LINE
  5
7D9
330
6BC
100
AcDbEntity
  8
MAAL
  6
Continuous
 62
     1
370
    -2
100
AcDbLine
 10
2980.438916253797
 20
1972.766192822885
 30
0.0
 11
2859.238114530765
 21
1972.766192822885
 31
0.0
  0
LINE
  5
7DA
330
6BC
100
AcDbEntity
  8
MAAL
  6
Continuous
 62
     1
370
    -2
100
AcDbLine
 10
3099.938916253798
 20
2969.766192822843
 30
0.0
 11
2859.238114530765
 21
2969.766192822843
 31
0.0
  0
LINE
  5
7DB
330
6BC
100
AcDbEntity
  8
MAAL
  6
Continuous
 62
     1
370
    -2
100
AcDbLine
 10
2879.238114530764
 20
1987.766192822886
 30
0.0
 11
2879.238114530764
 21
2954.766192822843
 31
0.0
  0
INSERT
  5
7DC
330
6BC
100
AcDbEntity
  8
MAAL
  6
Continuous
 62
     1
370
    -2
100
AcDbBlockReference
  2
PILE1
 10
2879.238114530764
 20
1972.766192822885
 30
0.0
 41
15.0
 42
15.0
 43
15.0
 50
270.0
  0
INSERT
  5
7DD
330
6BC
100
AcDbEntity
  8
MAAL
  6
Continuous
 62
     1
370
    -2
100
AcDbBlockReference
  2
PILE1
 10
2879.238114530764
 20
2969.766192822843
 30
0.0
 41
15.0
 42
15.0
 43
15.0
 50
90.0
  0
MTEXT
  5
7DE
330
6BC
100
AcDbEntity
  8
MAAL
  6
Continuous
 62
     4
100
AcDbMText
 10
2846.738114530764
 20
2471.266192822865
 30
0.0
 40
35.0
 41
0.0
 71
     5
 72
     1
  1
\A1;1000
  7
ROMANS
 11
0.0000000000000001
 21
1.0
 31
0.0
 73
     1
 44
1.0
1001
ACAD
1000
MTEXTBEGIN
1070
    73
1070
     1
1070
    44
1040
1.0
1070
    74
1070
     0
1000
MTEXTEND
  0
POINT
  5
7DF
330
6BC
100
AcDbEntity
  8
Defpoints
  6
Continuous
 62
     0
100
AcDbPoint
 10
3000.438916253797
 20
1972.766192822885
 30
272.3935238164262
  0
POINT
  5
7E0
330
6BC
100
AcDbEntity
  8
Defpoints
  6
Continuous
 62
     0
100
AcDbPoint
 10
3119.938916253798
 20
2969.766192822843
 30
272.3935238164426
  0
POINT
  5
7E1
330
6BC
100
AcDbEntity
  8
Defpoints
  6
Continuous
 62
     0
100
AcDbPoint
 10
2879.238114530764
 20
2969.766192822843
 30
0.0
  0
ENDBLK
  5
799
330
6BC
100
AcDbEntity
  8
0
100
AcDbBlockEnd
  0
BLOCK
  5
79A
330
6C6
100
AcDbEntity
  8
0
100
AcDbBlockBegin
  2
*D19
 70
     1
 10
0.0
 20
0.0
 30
0.0
  3
*D19
  1

  0
LINE
  5
7CF
330
6C6
100
AcDbEntity
  8
MAAL
  6
Continuous
 62
     1
370
    -2
100
AcDbLine
 10
2980.438916253797
 20
3114.766192822856
 30
-0.0000000000006821
 11
2719.646211126779
 21
3114.766192822856
 31
-0.0000000000006821
  0
LINE
  5
7D0
330
6C6
100
AcDbEntity
  8
MAAL
  6
Continuous
 62
     1
370
    -2
100
AcDbLine
 10
2980.438916253797
 20
1972.766192822885
 30
-0.0000000000006821
 11
2719.646211126778
 21
1972.766192822885
 31
-0.0000000000006821
  0
LINE
  5
7D1
330
6C6
100
AcDbEntity
  8
MAAL
  6
Continuous
 62
     1
370
    -2
100
AcDbLine
 10
2739.646211126779
 20
3099.766192822856
 30
-0.0000000000006821
 11
2739.646211126778
 21
1987.766192822886
 31
-0.0000000000006821
  0
INSERT
  5
7D2
330
6C6
100
AcDbEntity
  8
MAAL
  6
Continuous
 62
     1
370
    -2
100
AcDbBlockReference
  2
PILE1
 10
2739.646211126779
 20
3114.766192822856
 30
-0.0000000000006821
 41
15.0
 42
15.0
 43
15.0
 50
90.0
  0
INSERT
  5
7D3
330
6C6
100
AcDbEntity
  8
MAAL
  6
Continuous
 62
     1
370
    -2
100
AcDbBlockReference
  2
PILE1
 10
2739.646211126778
 20
1972.766192822885
 30
-0.0000000000006821
 41
15.0
 42
15.0
 43
15.0
 50
270.0
  0
MTEXT
  5
7D4
330
6C6
100
AcDbEntity
  8
MAAL
  6
Continuous
 62
     4
100
AcDbMText
 10
2707.146211126778
 20
2547.266192822857
 30
-0.0000000000006821
 40
35.0
 41
0.0
 71
     5
 72
     1
  1
\A1;1140
  7
ROMANS
 11
0.0000000000000001
 21
1.0
 31
0.0
 73
     1
 44
1.0
1001
ACAD
1000
MTEXTBEGIN
1070
    73
1070
     1
1070
    44
1040
1.0
1070
    74
1070
     0
1000
MTEXTEND
  0
POINT
  5
7D5
330
6C6
100
AcDbEntity
  8
Defpoints
  6
Continuous
 62
     0
100
AcDbPoint
 10
3000.438916253797
 20
3114.766192822856
 30
272.3935238164426
  0
POINT
  5
7D6
330
6C6
100
AcDbEntity
  8
Defpoints
  6
Continuous
 62
     0
100
AcDbPoint
 10
3000.438916253797
 20
1972.766192822885
 30
272.3935238164448
  0
POINT
  5
7D7
330
6C6
100
AcDbEntity
  8
Defpoints
  6
Continuous
 62
     0
100
AcDbPoint
 10
2739.646211126778
 20
1972.766192822885
 30
-0.0000000000006821
  0
ENDBLK
  5
79B
330
6C6
100
AcDbEntity
  8
0
100
AcDbBlockEnd
  0
BLOCK
  5
79C
330
6D0
100
AcDbEntity
  8
0
100
AcDbBlockBegin
  2
*D20
 70
     1
 10
0.0
 20
0.0
 30
0.0
  3
*D20
  1

  0
LINE
  5
7B9
330
6D0
100
AcDbEntity
  8
MAAL
  6
Continuous
 62
     1
370
    -2
100
AcDbLine
 10
3000.438916253797
 20
3266.177916707784
 30
-0.0000000000006821
 11
3000.438916253797
 21
3344.748313788439
 31
-0.0000000000006821
  0
LINE
  5
7BA
330
6D0
100
AcDbEntity
  8
MAAL
  6
Continuous
 62
     1
370
    -2
100
AcDbLine
 10
3189.938916253801
 20
2884.766192822841
 30
-0.0000000000006821
 11
3189.938916253801
 21
3344.748313788439
 31
-0.0000000000006821
  0
LINE
  5
7BB
330
6D0
100
AcDbEntity
  8
MAAL
  6
Continuous
 62
     1
370
    -2
100
AcDbLine
 10
3015.438916253798
 20
3324.74831378844
 30
-0.0000000000006821
 11
3174.938916253801
 21
3324.74831378844
 31
-0.0000000000006821
  0
INSERT
  5
7BC
330
6D0
100
AcDbEntity
  8
MAAL
  6
Continuous
 62
     1
370
    -2
100
AcDbBlockReference
  2
PILE1
 10
3000.438916253797
 20
3324.74831378844
 30
-0.0000000000006821
 41
15.0
 42
15.0
 43
15.0
 50
180.0
  0
INSERT
  5
7BD
330
6D0
100
AcDbEntity
  8
MAAL
  6
Continuous
 62
     1
370
    -2
100
AcDbBlockReference
  2
PILE1
 10
3189.938916253801
 20
3324.74831378844
 30
-0.0000000000006821
 41
15.0
 42
15.0
 43
15.0
  0
MTEXT
  5
7BE
330
6D0
100
AcDbEntity
  8
MAAL
  6
Continuous
 62
     4
100
AcDbMText
 10
3095.188916253799
 20
3357.248313788439
 30
-0.0000000000006821
 40
35.0
 41
0.0
 71
     5
 72
     1
  1
\A1;200
  7
ROMANS
 73
     1
 44
1.0
1001
ACAD
1000
MTEXTBEGIN
1070
    73
1070
     1
1070
    44
1040
1.0
1070
    74
1070
     0
1000
MTEXTEND
  0
POINT
  5
7BF
330
6D0
100
AcDbEntity
  8
Defpoints
  6
Continuous
 62
     0
100
AcDbPoint
 10
3000.438916253797
 20
3246.177916707784
 30
272.393523816444
  0
POINT
  5
7C0
330
6D0
100
AcDbEntity
  8
Defpoints
  6
Continuous
 62
     0
100
AcDbPoint
 10
3189.938916253801
 20
2864.766192822841
 30
272.3935238164442
  0
POINT
  5
7C1
330
6D0
100
AcDbEntity
  8
Defpoints
  6
Continuous
 62
     0
100
AcDbPoint
 10
3189.938916253801
 20
3324.74831378844
 30
-0.0000000000006821
  0
ENDBLK
  5
79D
330
6D0
100
AcDbEntity
  8
0
100
AcDbBlockEnd
  0
BLOCK
  5
79E
330
6DA
100
AcDbEntity
  8
0
100
AcDbBlockBegin
  2
*D21
 70
     1
 10
0.0
 20
0.0
 30
0.0
  3
*D21
  1

  0
LINE
  5
7C3
330
6DA
100
AcDbEntity
  8
MAAL
  6
Continuous
 62
     1
370
    -2
100
AcDbLine
 10
3000.438916253797
 20
3226.177916707784
 30
-0.0000000000006821
 11
3000.438916253797
 21
3174.689671377599
 31
-0.0000000000006821
  0
LINE
  5
7C4
330
6DA
100
AcDbEntity
  8
MAAL
  6
Continuous
 62
     1
370
    -2
100
AcDbLine
 10
3090.438916253801
 20
3127.266192822859
 30
-0.0000000000006821
 11
3090.438916253801
 21
3214.689671377599
 31
-0.0000000000006821
  0
LINE
  5
7C5
330
6DA
100
AcDbEntity
  8
MAAL
  6
Continuous
 62
     1
370
    -2
100
AcDbLine
 10
2985.438916253798
 20
3194.689671377599
 30
-0.0000000000006821
 11
2970.438916253798
 21
3194.689671377599
 31
-0.0000000000006821
  0
LINE
  5
7C6
330
6DA
100
AcDbEntity
  8
MAAL
  6
Continuous
 62
     1
370
    -2
100
AcDbLine
 10
3105.438916253801
 20
3194.689671377599
 30
-0.0000000000006821
 11
3235.438916253801
 21
3194.689671377599
 31
-0.0000000000006821
  0
LINE
  5
7C7
330
6DA
100
AcDbEntity
  8
MAAL
  6
Continuous
 62
     1
370
    -2
100
AcDbLine
 10
3000.438916253797
 20
3194.689671377599
 30
-0.0000000000006821
 11
3090.438916253801
 21
3194.689671377599
 31
-0.0000000000006821
  0
INSERT
  5
7C8
330
6DA
100
AcDbEntity
  8
MAAL
  6
Continuous
 62
     1
370
    -2
100
AcDbBlockReference
  2
PILE1
 10
3000.438916253797
 20
3194.689671377599
 30
-0.0000000000006821
 41
15.0
 42
15.0
 43
15.0
  0
INSERT
  5
7C9
330
6DA
100
AcDbEntity
  8
MAAL
  6
Continuous
 62
     1
370
    -2
100
AcDbBlockReference
  2
PILE1
 10
3090.438916253801
 20
3194.689671377599
 30
-0.0000000000006821
 41
15.0
 42
15.0
 43
15.0
 50
180.0
  0
MTEXT
  5
7CA
330
6DA
100
AcDbEntity
  8
MAAL
  6
Continuous
 62
     4
100
AcDbMText
 10
3177.938916253801
 20
3227.189671377599
 30
-0.0000000000006821
 40
35.0
 41
0.0
 71
     5
 72
     1
  1
\A1;100
  7
ROMANS
 73
     1
 44
1.0
1001
ACAD
1000
MTEXTBEGIN
1070
    73
1070
     1
1070
    44
1040
1.0
1070
    74
1070
     0
1000
MTEXTEND
  0
POINT
  5
7CB
330
6DA
100
AcDbEntity
  8
Defpoints
  6
Continuous
 62
     0
100
AcDbPoint
 10
3000.438916253797
 20
3246.177916707784
 30
272.393523816444
  0
POINT
  5
7CC
330
6DA
100
AcDbEntity
  8
Defpoints
  6
Continuous
 62
     0
100
AcDbPoint
 10
3090.438916253801
 20
3107.266192822858
 30
272.3935238164316
  0
POINT
  5
7CD
330
6DA
100
AcDbEntity
  8
Defpoints
  6
Continuous
 62
     0
100
AcDbPoint
 10
3090.438916253801
 20
3194.689671377599
 30
-0.0000000000006821
  0
ENDBLK
  5
79F
330
6DA
100
AcDbEntity
  8
0
100
AcDbBlockEnd
  0
BLOCK
  5
7A0
330
6E4
100
AcDbEntity
  8
0
100
AcDbBlockBegin
  2
*D22
 70
     1
 10
0.0
 20
0.0
 30
0.0
  3
*D22
  1

  0
LINE
  5
801
330
6E4
100
AcDbEntity
  8
AM_5
 62
     1
370
    -2
100
AcDbLine
 10
814.3134467172677
 20
814.4929705973146
 30
0.0
 11
814.3134467172677
 21
1158.26359276484
 31
0.0
  0
LINE
  5
802
330
6E4
100
AcDbEntity
  8
AM_5
 62
     1
370
    -2
100
AcDbLine
 10
2414.31344671727
 20
814.4929705972781
 30
0.0
 11
2414.31344671727
 21
1158.26359276484
 31
0.0
  0
LINE
  5
803
330
6E4
100
AcDbEntity
  8
AM_5
 62
     1
370
    -2
100
AcDbLine
 10
829.3134467172675
 20
1138.26359276484
 30
0.0
 11
2399.31344671727
 21
1138.26359276484
 31
0.0
  0
INSERT
  5
804
330
6E4
100
AcDbEntity
  8
AM_5
 62
     1
370
    -2
100
AcDbBlockReference
  2
PILE1
 10
814.3134467172677
 20
1138.26359276484
 30
0.0
 41
15.0
 42
15.0
 43
15.0
 50
180.0
  0
INSERT
  5
805
330
6E4
100
AcDbEntity
  8
AM_5
 62
     1
370
    -2
100
AcDbBlockReference
  2
PILE1
 10
2414.31344671727
 20
1138.26359276484
 30
0.0
 41
15.0
 42
15.0
 43
15.0
  0
MTEXT
  5
806
330
6E4
100
AcDbEntity
  8
AM_5
 62
     4
100
AcDbMText
 10
1614.313446717268
 20
1170.76359276484
 30
0.0
 40
35.0
 41
0.0
 71
     5
 72
     1
  1
\A1;1600
  7
ROMANS
 73
     1
 44
1.0
1001
ACAD
1000
MTEXTBEGIN
1070
    73
1070
     1
1070
    44
1040
1.0
1070
    74
1070
     0
1000
MTEXTEND
  0
POINT
  5
807
330
6E4
100
AcDbEntity
  8
Defpoints
 62
     0
100
AcDbPoint
 10
814.3134467172677
 20
794.4929705973145
 30
0.0
  0
POINT
  5
808
330
6E4
100
AcDbEntity
  8
Defpoints
 62
     0
100
AcDbPoint
 10
2414.31344671727
 20
794.4929705972781
 30
0.0
  0
POINT
  5
809
330
6E4
100
AcDbEntity
  8
Defpoints
 62
     0
100
AcDbPoint
 10
2414.31344671727
 20
1138.26359276484
 30
0.0
  0
ENDBLK
  5
7A1
330
6E4
100
AcDbEntity
  8
0
100
AcDbBlockEnd
  0
BLOCK
  5
7A2
330
6EE
100
AcDbEntity
  8
0
100
AcDbBlockBegin
  2
*D23
 70
     1
 10
0.0
 20
0.0
 30
0.0
  3
*D23
  1

  0
LINE
  5
81F
330
6EE
100
AcDbEntity
  8
MAAL
  6
Continuous
 62
     1
370
    -2
100
AcDbLine
 10
3000.438916253797
 20
1952.766192822885
 30
0.0
 11
3000.438916253797
 21
1846.589573722696
 31
0.0
  0
LINE
  5
820
330
6EE
100
AcDbEntity
  8
MAAL
  6
Continuous
 62
     1
370
    -2
100
AcDbLine
 10
3139.938916253794
 20
1972.766192822849
 30
0.0
 11
3139.938916253794
 21
1846.589573722696
 31
0.0
  0
LINE
  5
821
330
6EE
100
AcDbEntity
  8
MAAL
  6
Continuous
 62
     1
370
    -2
100
AcDbLine
 10
3015.438916253798
 20
1866.589573722696
 30
0.0
 11
3124.938916253794
 21
1866.589573722696
 31
0.0
  0
INSERT
  5
822
330
6EE
100
AcDbEntity
  8
MAAL
  6
Continuous
 62
     1
370
    -2
100
AcDbBlockReference
  2
PILE1
 10
3000.438916253797
 20
1866.589573722696
 30
0.0
 41
15.0
 42
15.0
 43
15.0
 50
180.0
  0
INSERT
  5
823
330
6EE
100
AcDbEntity
  8
MAAL
  6
Continuous
 62
     1
370
    -2
100
AcDbBlockReference
  2
PILE1
 10
3139.938916253794
 20
1866.589573722696
 30
0.0
 41
15.0
 42
15.0
 43
15.0
  0
MTEXT
  5
824
330
6EE
100
AcDbEntity
  8
MAAL
  6
Continuous
 62
     4
100
AcDbMText
 10
3070.188916253796
 20
1899.089573722696
 30
0.0
 40
35.0
 41
0.0
 71
     5
 72
     1
  1
\A1;150
  7
ROMANS
 73
     1
 44
1.0
1001
ACAD
1000
MTEXTBEGIN
1070
    73
1070
     1
1070
    44
1040
1.0
1070
    74
1070
     0
1000
MTEXTEND
  0
POINT
  5
825
330
6EE
100
AcDbEntity
  8
Defpoints
  6
Continuous
 62
     0
100
AcDbPoint
 10
3000.438916253797
 20
1972.766192822885
 30
272.3935238164262
  0
POINT
  5
826
330
6EE
100
AcDbEntity
  8
Defpoints
  6
Continuous
 62
     0
100
AcDbPoint
 10
3139.938916253794
 20
1992.766192822849
 30
272.3935238164473
  0
POINT
  5
827
330
6EE
100
AcDbEntity
  8
Defpoints
  6
Continuous
 62
     0
100
AcDbPoint
 10
3139.938916253794
 20
1866.589573722696
 30
0.0
  0
ENDBLK
  5
7A3
330
6EE
100
AcDbEntity
  8
0
100
AcDbBlockEnd
  0
BLOCK
  5
7A4
330
6F8
100
AcDbEntity
  8
0
100
AcDbBlockBegin
  2
*D24
 70
     1
 10
0.0
 20
0.0
 30
0.0
  3
*D24
  1

  0
LINE
  5
7F7
330
6F8
100
AcDbEntity
  8
MAAL
  6
Continuous
 62
     1
370
    -2
100
AcDbLine
 10
2030.313446717299
 20
2091.766192823355
 30
0.0
 11
2030.313446717299
 21
1792.804853198856
 31
0.0
  0
LINE
  5
7F8
330
6F8
100
AcDbEntity
  8
MAAL
  6
Continuous
 62
     1
370
    -2
100
AcDbLine
 10
1198.313446717287
 20
2091.766192823353
 30
0.0
 11
1198.313446717287
 21
1792.804853198856
 31
0.0
  0
LINE
  5
7F9
330
6F8
100
AcDbEntity
  8
MAAL
  6
Continuous
 62
     1
370
    -2
100
AcDbLine
 10
2015.313446717299
 20
1812.804853198856
 30
0.0
 11
1213.313446717287
 21
1812.804853198856
 31
0.0
  0
INSERT
  5
7FA
330
6F8
100
AcDbEntity
  8
MAAL
  6
Continuous
 62
     1
370
    -2
100
AcDbBlockReference
  2
PILE1
 10
2030.313446717299
 20
1812.804853198856
 30
0.0
 41
15.0
 42
15.0
 43
15.0
  0
INSERT
  5
7FB
330
6F8
100
AcDbEntity
  8
MAAL
  6
Continuous
 62
     1
370
    -2
100
AcDbBlockReference
  2
PILE1
 10
1198.313446717287
 20
1812.804853198856
 30
0.0
 41
15.0
 42
15.0
 43
15.0
 50
180.0
  0
MTEXT
  5
7FC
330
6F8
100
AcDbEntity
  8
MAAL
  6
Continuous
 62
     4
100
AcDbMText
 10
1614.313446717293
 20
1845.304853198856
 30
0.0
 40
35.0
 41
0.0
 71
     5
 72
     1
  1
\A1;860
  7
ROMANS
 73
     1
 44
1.0
1001
ACAD
1000
MTEXTBEGIN
1070
    73
1070
     1
1070
    44
1040
1.0
1070
    74
1070
     0
1000
MTEXTEND
  0
POINT
  5
7FD
330
6F8
100
AcDbEntity
  8
Defpoints
  6
Continuous
 62
     0
100
AcDbPoint
 10
2030.313446717299
 20
2111.766192823355
 30
272.3935238164425
  0
POINT
  5
7FE
330
6F8
100
AcDbEntity
  8
Defpoints
  6
Continuous
 62
     0
100
AcDbPoint
 10
1198.313446717287
 20
2111.766192823353
 30
272.3935238164453
  0
POINT
  5
7FF
330
6F8
100
AcDbEntity
  8
Defpoints
  6
Continuous
 62
     0
100
AcDbPoint
 10
1198.313446717287
 20
1812.804853198856
 30
0.0
  0
ENDBLK
  5
7A5
330
6F8
100
AcDbEntity
  8
0
100
AcDbBlockEnd
  0
BLOCK
  5
7A6
330
702
100
AcDbEntity
  8
0
100
AcDbBlockBegin
  2
*D25
 70
     1
 10
0.0
 20
0.0
 30
0.0
  3
*D25
  1

  0
LINE
  5
7E3
330
702
100
AcDbEntity
  8
MAAL
  6
Continuous
 62
     1
370
    -2
100
AcDbLine
 10
871.4949696963213
 20
1972.766192822863
 30
0.0
 11
610.7248333845476
 21
1972.766192822863
 31
0.0
  0
LINE
  5
7E4
330
702
100
AcDbEntity
  8
MAAL
  6
Continuous
 62
     1
370
    -2
100
AcDbLine
 10
794.3134467172821
 20
2972.766192822863
 30
0.0
 11
610.7248333845478
 21
2972.766192822863
 31
0.0
  0
LINE
  5
7E5
330
702
100
AcDbEntity
  8
MAAL
  6
Continuous
 62
     1
370
    -2
100
AcDbLine
 10
630.7248333845477
 20
1987.766192822864
 30
0.0
 11
630.7248333845478
 21
2957.766192822863
 31
0.0
  0
INSERT
  5
7E6
330
702
100
AcDbEntity
  8
MAAL
  6
Continuous
 62
     1
370
    -2
100
AcDbBlockReference
  2
PILE1
 10
630.7248333845477
 20
1972.766192822863
 30
0.0
 41
15.0
 42
15.0
 43
15.0
 50
270.0
  0
INSERT
  5
7E7
330
702
100
AcDbEntity
  8
MAAL
  6
Continuous
 62
     1
370
    -2
100
AcDbBlockReference
  2
PILE1
 10
630.7248333845478
 20
2972.766192822863
 30
0.0
 41
15.0
 42
15.0
 43
15.0
 50
90.0
  0
MTEXT
  5
7E8
330
702
100
AcDbEntity
  8
MAAL
  6
Continuous
 62
     4
100
AcDbMText
 10
598.2248333845473
 20
2472.766192822863
 30
0.0
 40
35.0
 41
0.0
 71
     5
 72
     1
  1
\A1;1000
  7
ROMANS
 11
0.0000000000000001
 21
1.0
 31
0.0
 73
     1
 44
1.0
1001
ACAD
1000
MTEXTBEGIN
1070
    73
1070
     1
1070
    44
1040
1.0
1070
    74
1070
     0
1000
MTEXTEND
  0
POINT
  5
7E9
330
702
100
AcDbEntity
  8
Defpoints
  6
Continuous
 62
     0
100
AcDbPoint
 10
891.4949696963212
 20
1972.766192822863
 30
272.3935238164522
  0
POINT
  5
7EA
330
702
100
AcDbEntity
  8
Defpoints
  6
Continuous
 62
     0
100
AcDbPoint
 10
814.3134467172822
 20
2972.766192822863
 30
272.3935238164525
  0
POINT
  5
7EB
330
702
100
AcDbEntity
  8
Defpoints
  6
Continuous
 62
     0
100
AcDbPoint
 10
630.7248333845478
 20
2972.766192822863
 30
0.0
  0
ENDBLK
  5
7A7
330
702
100
AcDbEntity
  8
0
100
AcDbBlockEnd
  0
BLOCK
  5
7A8
330
70C
100
AcDbEntity
  8
0
100
AcDbBlockBegin
  2
*D26
 70
     1
 10
0.0
 20
0.0
 30
0.0
  3
*D26
  1

  0
LINE
  5
7ED
330
70C
100
AcDbEntity
  8
MAAL
  6
Continuous
 62
     1
370
    -2
100
AcDbLine
 10
794.313446717284
 20
2272.766192822863
 30
0.0
 11
712.0333478028351
 21
2272.766192822863
 31
0.0
  0
LINE
  5
7EE
330
70C
100
AcDbEntity
  8
MAAL
  6
Continuous
 62
     1
370
    -2
100
AcDbLine
 10
871.4949696963213
 20
1972.766192822863
 30
0.0
 11
712.0333478028351
 21
1972.766192822863
 31
0.0
  0
LINE
  5
7EF
330
70C
100
AcDbEntity
  8
MAAL
  6
Continuous
 62
     1
370
    -2
100
AcDbLine
 10
732.0333478028351
 20
2257.766192822863
 30
0.0
 11
732.0333478028351
 21
1987.766192822864
 31
0.0
  0
INSERT
  5
7F0
330
70C
100
AcDbEntity
  8
MAAL
  6
Continuous
 62
     1
370
    -2
100
AcDbBlockReference
  2
PILE1
 10
732.0333478028351
 20
2272.766192822863
 30
0.0
 41
15.0
 42
15.0
 43
15.0
 50
90.0
  0
INSERT
  5
7F1
330
70C
100
AcDbEntity
  8
MAAL
  6
Continuous
 62
     1
370
    -2
100
AcDbBlockReference
  2
PILE1
 10
732.0333478028351
 20
1972.766192822863
 30
0.0
 41
15.0
 42
15.0
 43
15.0
 50
270.0
  0
MTEXT
  5
7F2
330
70C
100
AcDbEntity
  8
MAAL
  6
Continuous
 62
     4
100
AcDbMText
 10
699.5333478028348
 20
2122.766192822863
 30
0.0
 40
35.0
 41
0.0
 71
     5
 72
     1
  1
\A1;300
  7
ROMANS
 11
0.0000000000000001
 21
1.0
 31
0.0
 73
     1
 44
1.0
1001
ACAD
1000
MTEXTBEGIN
1070
    73
1070
     1
1070
    44
1040
1.0
1070
    74
1070
     0
1000
MTEXTEND
  0
POINT
  5
7F3
330
70C
100
AcDbEntity
  8
Defpoints
  6
Continuous
 62
     0
100
AcDbPoint
 10
814.313446717284
 20
2272.766192822863
 30
272.3935238164525
  0
POINT
  5
7F4
330
70C
100
AcDbEntity
  8
Defpoints
  6
Continuous
 62
     0
100
AcDbPoint
 10
891.4949696963212
 20
1972.766192822863
 30
272.3935238164522
  0
POINT
  5
7F5
330
70C
100
AcDbEntity
  8
Defpoints
  6
Continuous
 62
     0
100
AcDbPoint
 10
732.0333478028351
 20
1972.766192822863
 30
0.0
  0
ENDBLK
  5
7A9
330
70C
100
AcDbEntity
  8
0
100
AcDbBlockEnd
  0
BLOCK
  5
7AA
330
716
100
AcDbEntity
  8
0
100
AcDbBlockBegin
  2
*D27
 70
     1
 10
0.0
 20
0.0
 30
0.0
  3
*D27
  1

  0
LINE
  5
815
330
716
100
AcDbEntity
  8
MAAL
  6
Continuous
 62
     1
370
    -2
100
AcDbLine
 10
871.4949696963213
 20
1669.992970597293
 30
0.0
 11
610.7248333845475
 21
1669.992970597293
 31
0.0
  0
LINE
  5
816
330
716
100
AcDbEntity
  8
MAAL
  6
Continuous
 62
     1
370
    -2
100
AcDbLine
 10
794.3134467172677
 20
794.4929705973154
 30
0.0
 11
610.7248333845474
 21
794.4929705973155
 31
0.0
  0
LINE
  5
817
330
716
100
AcDbEntity
  8
MAAL
  6
Continuous
 62
     1
370
    -2
100
AcDbLine
 10
630.7248333845475
 20
1654.992970597293
 30
0.0
 11
630.7248333845474
 21
809.4929705973155
 31
0.0
  0
INSERT
  5
818
330
716
100
AcDbEntity
  8
MAAL
  6
Continuous
 62
     1
370
    -2
100
AcDbBlockReference
  2
PILE1
 10
630.7248333845475
 20
1669.992970597293
 30
0.0
 41
15.0
 42
15.0
 43
15.0
 50
90.0
  0
INSERT
  5
819
330
716
100
AcDbEntity
  8
MAAL
  6
Continuous
 62
     1
370
    -2
100
AcDbBlockReference
  2
PILE1
 10
630.7248333845474
 20
794.4929705973155
 30
0.0
 41
15.0
 42
15.0
 43
15.0
 50
270.0
  0
MTEXT
  5
81A
330
716
100
AcDbEntity
  8
MAAL
  6
Continuous
 62
     4
100
AcDbMText
 10
598.2248333845473
 20
1232.242970597304
 30
0.0
 40
35.0
 41
0.0
 71
     5
 72
     1
  1
\A1;890
  7
ROMANS
 11
0.0000000000000001
 21
1.0
 31
0.0
 73
     1
 44
1.0
1001
ACAD
1000
MTEXTBEGIN
1070
    73
1070
     1
1070
    44
1040
1.0
1070
    74
1070
     0
1000
MTEXTEND
  0
POINT
  5
81B
330
716
100
AcDbEntity
  8
Defpoints
  6
Continuous
 62
     0
100
AcDbPoint
 10
891.4949696963212
 20
1669.992970597293
 30
272.3935238164072
  0
POINT
  5
81C
330
716
100
AcDbEntity
  8
Defpoints
  6
Continuous
 62
     0
100
AcDbPoint
 10
814.3134467172677
 20
794.4929705973154
 30
272.3935238163962
  0
POINT
  5
81D
330
716
100
AcDbEntity
  8
Defpoints
  6
Continuous
 62
     0
100
AcDbPoint
 10
630.7248333845474
 20
794.4929705973155
 30
0.0
  0
ENDBLK
  5
7AB
330
716
100
AcDbEntity
  8
0
100
AcDbBlockEnd
  0
BLOCK
  5
7AC
330
720
100
AcDbEntity
  8
0
100
AcDbBlockBegin
  2
*D28
 70
     1
 10
0.0
 20
0.0
 30
0.0
  3
*D28
  1

  0
LINE
  5
80B
330
720
100
AcDbEntity
  8
MAAL
  6
Continuous
 62
     1
370
    -2
100
AcDbLine
 10
794.3134467172731
 20
1494.492970597315
 30
0.0
 11
712.2702363520239
 21
1494.492970597315
 31
0.0
  0
LINE
  5
80C
330
720
100
AcDbEntity
  8
MAAL
  6
Continuous
 62
     1
370
    -2
100
AcDbLine
 10
794.3134467172658
 20
794.4929705973154
 30
0.0
 11
712.2702363520239
 21
794.4929705973155
 31
0.0
  0
LINE
  5
80D
330
720
100
AcDbEntity
  8
MAAL
  6
Continuous
 62
     1
370
    -2
100
AcDbLine
 10
732.270236352024
 20
1479.492970597315
 30
0.0
 11
732.2702363520238
 21
809.4929705973155
 31
0.0
  0
INSERT
  5
80E
330
720
100
AcDbEntity
  8
MAAL
  6
Continuous
 62
     1
370
    -2
100
AcDbBlockReference
  2
PILE1
 10
732.270236352024
 20
1494.492970597315
 30
0.0
 41
15.0
 42
15.0
 43
15.0
 50
90.0
  0
INSERT
  5
80F
330
720
100
AcDbEntity
  8
MAAL
  6
Continuous
 62
     1
370
    -2
100
AcDbBlockReference
  2
PILE1
 10
732.2702363520238
 20
794.4929705973155
 30
0.0
 41
15.0
 42
15.0
 43
15.0
 50
270.0
  0
MTEXT
  5
810
330
720
100
AcDbEntity
  8
MAAL
  6
Continuous
 62
     4
100
AcDbMText
 10
699.7702363520237
 20
1144.492970597315
 30
0.0
 40
35.0
 41
0.0
 71
     5
 72
     1
  1
\A1;700
  7
ROMANS
 11
0.0000000000000001
 21
1.0
 31
0.0
 73
     1
 44
1.0
1001
ACAD
1000
MTEXTBEGIN
1070
    73
1070
     1
1070
    44
1040
1.0
1070
    74
1070
     0
1000
MTEXTEND
  0
POINT
  5
811
330
720
100
AcDbEntity
  8
Defpoints
  6
Continuous
 62
     0
100
AcDbPoint
 10
814.313446717273
 20
1494.492970597315
 30
272.393523816395
  0
POINT
  5
812
330
720
100
AcDbEntity
  8
Defpoints
  6
Continuous
 62
     0
100
AcDbPoint
 10
814.3134467172657
 20
794.4929705973154
 30
272.3935238163962
  0
POINT
  5
813
330
720
100
AcDbEntity
  8
Defpoints
  6
Continuous
 62
     0
100
AcDbPoint
 10
732.2702363520238
 20
794.4929705973155
 30
0.0
  0
ENDBLK
  5
7AD
330
720
100
AcDbEntity
  8
0
100
AcDbBlockEnd
  0
ENDSEC
  0
SECTION
  2
ENTITIES
  0
DIMENSION
  5
50B
330
1F
100
AcDbEntity
  8
MAAL
  6
Continuous
100
AcDbDimension
  2
*D24
 10
1198.313446717287
 20
1812.804853198856
 30
0.0
 11
1614.313446717293
 21
1845.304853198856
 31
0.0
 70
    32
  1
860
 71
     5
 42
83.2000000000011
  3
ROPOX
100
AcDbAlignedDimension
 13
2030.313446717299
 23
2111.766192823355
 33
272.3935238164425
 14
1198.313446717287
 24
2111.766192823353
 34
272.3935238164453
100
AcDbRotatedDimension
1001
ACAD
1000
DSTYLE
1002
{
1070
   144
1040
0.1
1002
}
  0
DIMENSION
  5
50C
330
1F
100
AcDbEntity
  8
MAAL
  6
Continuous
100
AcDbDimension
  2
*D25
 10
630.7248333845478
 20
2972.766192822863
 30
0.0
 11
630.7248333845473
 21
2472.766192822863
 31
0.0
 70
   160
  1
<>0
 71
     5
 42
99.99999999999994
  3
ROPOX
100
AcDbAlignedDimension
 13
891.4949696963212
 23
1972.766192822863
 33
272.3935238164522
 14
814.3134467172822
 24
2972.766192822863
 34
272.3935238164525
 50
90.0
100
AcDbRotatedDimension
1001
ACAD
1000
DSTYLE
1002
{
1070
   144
1040
0.1
1002
}
  0
DIMENSION
  5
50D
330
1F
100
AcDbEntity
  8
MAAL
  6
Continuous
100
AcDbDimension
  2
*D26
 10
732.0333478028351
 20
1972.766192822863
 30
0.0
 11
699.5333478028348
 21
2122.766192822863
 31
0.0
 70
    32
  1
<>0
 71
     5
 42
29.99999999999993
  3
ROPOX
100
AcDbAlignedDimension
 13
814.313446717284
 23
2272.766192822863
 33
272.3935238164525
 14
891.4949696963212
 24
1972.766192822863
 34
272.3935238164522
 50
90.0
100
AcDbRotatedDimension
1001
ACAD
1000
DSTYLE
1002
{
1070
   144
1040
0.1
1002
}
  0
LINE
  5
50E
330
1F
100
AcDbEntity
  8
EMNE
100
AcDbLine
 10
1259.313446717295
 20
2202.766192823682
 30
272.3935238164507
 11
1259.313446717295
 21
1992.766192822864
 31
272.3935238164504
  0
LINE
  5
50F
330
1F
100
AcDbEntity
  8
EMNE
100
AcDbLine
 10
1969.313446717295
 20
1992.766192822865
 30
272.3935238164477
 11
1969.313446717295
 21
2202.766192823685
 31
272.3935238164477
  0
DIMENSION
  5
510
330
1F
100
AcDbEntity
  8
MAAL
  6
Continuous
100
AcDbDimension
  2
*D27
 10
630.7248333845474
 20
794.4929705973155
 30
0.0
 11
630.7248333845473
 21
1232.242970597304
 31
0.0
 70
   160
  1
890
 71
     5
 42
87.54999999999773
  3
ROPOX
100
AcDbAlignedDimension
 13
891.4949696963212
 23
1669.992970597293
 33
272.3935238164072
 14
814.3134467172677
 24
794.4929705973154
 34
272.3935238163962
 50
90.0
100
AcDbRotatedDimension
1001
ACAD
1000
DSTYLE
1002
{
1070
   144
1040
0.1
1002
}
  0
DIMENSION
  5
511
330
1F
100
AcDbEntity
  8
MAAL
  6
Continuous
100
AcDbDimension
  2
*D28
 10
732.2702363520238
 20
794.4929705973155
 30
0.0
 11
699.7702363520237
 21
1144.492970597315
 31
0.0
 70
    32
  1
<>0
 71
     5
 42
70.0
  3
ROPOX
100
AcDbAlignedDimension
 13
814.313446717273
 23
1494.492970597315
 33
272.393523816395
 14
814.3134467172657
 24
794.4929705973154
 34
272.3935238163962
 50
90.0
100
AcDbRotatedDimension
1001
ACAD
1000
DSTYLE
1002
{
1070
   144
1040
0.1
1002
}
  0
LINE
  5
512
330
1F
100
AcDbEntity
  8
EMNE
100
AcDbLine
 10
814.313446717273
 20
1494.492970597314
 30
272.3935238163966
 11
814.3134467172677
 21
794.4929705973145
 31
272.3935238164769
  0
LINE
  5
513
330
1F
100
AcDbEntity
  8
EMNE
100
AcDbLine
 10
2414.313446717273
 20
1494.492970597278
 30
272.3935238164494
 11
2414.31344671727
 21
794.4929705972781
 31
272.3935238164528
  0
LINE
  5
514
330
1F
100
AcDbEntity
  8
EMNE
100
AcDbLine
 10
814.3134467172657
 20
794.4929705973154
 30
272.3935238163962
 11
2414.31344671727
 21
794.4929705972772
 31
272.3935238164494
  0
LINE
  5
515
330
1F
100
AcDbEntity
  8
EMNE
100
AcDbLine
 10
2340.218858958813
 20
1669.992970597298
 30
272.3935238164017
 11
891.4949696963212
 21
1669.992970597293
 31
272.3935238164072
  0
LINE
  5
516
330
1F
100
AcDbEntity
  8
EMNE
100
AcDbLine
 10
814.3134467172695
 20
1494.492970597315
 30
272.393523816395
 11
2414.313446717273
 21
1494.492970597278
 31
272.3935238164481
  0
LINE
  5
517
330
1F
100
AcDbEntity
  8
EMNE
100
AcDbLine
 10
2340.218858958813
 20
1972.766192822869
 30
272.3935238164468
 11
891.4949696963212
 21
1972.766192822863
 31
272.3935238164522
  0
LINE
  5
518
330
1F
100
AcDbEntity
  8
EMNE
  6
Continuous
100
AcDbLine
 10
1259.313446717295
 20
1659.992970597289
 30
272.3935238164499
 11
1259.313446717295
 21
1589.992970597291
 31
272.393523816449
  0
LINE
  5
519
330
1F
100
AcDbEntity
  8
EMNE
  6
Continuous
100
AcDbLine
 10
1969.313446717295
 20
1659.992970597289
 30
272.3935238164477
 11
1969.313446717295
 21
1589.99297059728
 31
272.3935238164477
  0
LINE
  5
51A
330
1F
100
AcDbEntity
  8
EMNE
100
AcDbLine
 10
1980.313446717275
 20
1629.992970597277
 30
272.3935238164498
 11
1980.313446717273
 21
1554.992970597275
 31
272.3935238164502
  0
LINE
  5
51B
330
1F
100
AcDbEntity
  8
EMNE
100
AcDbLine
 10
1979.313446717273
 20
1614.492970597277
 30
272.39352381645
 11
1979.313446717273
 21
1494.492970597287
 31
272.3935238164508
  0
LINE
  5
51C
330
1F
100
AcDbEntity
  8
EMNE
100
AcDbLine
 10
2020.313446717273
 20
1629.992970597279
 30
272.3935238164516
 11
2020.313446717273
 21
1529.992970597278
 31
272.3935238164502
  0
LINE
  5
51D
330
1F
100
AcDbEntity
  8
EMNE
100
AcDbLine
 10
1248.313446717278
 20
1629.992970597282
 30
272.3935238164504
 11
1248.31344671728
 21
1554.99297059728
 31
272.3935238164508
  0
LINE
  5
51E
330
1F
100
AcDbEntity
  8
EMNE
100
AcDbLine
 10
1249.31344671728
 20
1614.492970597282
 30
272.3935238164496
 11
1249.313446717277
 21
1494.492970597307
 31
272.3935238164516
  0
LINE
  5
51F
330
1F
100
AcDbEntity
  8
EMNE
100
AcDbLine
 10
1208.31344671728
 20
1629.992970597285
 30
272.3935238164516
 11
1208.31344671728
 21
1529.992970597282
 31
272.3935238164515
  0
LINE
  5
520
330
1F
100
AcDbEntity
  8
EMNE
  6
Continuous
100
AcDbLine
 10
1269.313446717295
 20
1530.492970597294
 30
272.3935238164504
 11
1959.313446717295
 21
1530.492970597285
 31
272.3935238164503
  0
LINE
  5
521
330
1F
100
AcDbEntity
  8
EMNE
  6
Continuous
100
AcDbLine
 10
1959.313446717295
 20
1579.99297059728
 30
272.3935238164497
 11
1269.313446717295
 21
1579.992970597291
 31
272.3935238164517
  0
LINE
  5
522
330
1F
100
AcDbEntity
  8
EMNE
  6
Continuous
100
AcDbLine
 10
1259.313446717295
 20
1540.492970597293
 30
272.3935238164494
 11
1259.313446717295
 21
1589.992970597285
 31
272.3935238164452
  0
LINE
  5
523
330
1F
100
AcDbEntity
  8
EMNE
100
AcDbLine
 10
1229.313446717282
 20
1554.992970597282
 30
272.3935238164504
 11
1229.313446717277
 21
1494.492970597307
 31
272.3935238164509
  0
LINE
  5
524
330
1F
100
AcDbEntity
  8
EMNE
100
AcDbLine
 10
1216.31344671728
 20
1554.992970597283
 30
272.3935238164487
 11
1216.313446717278
 21
1529.992970597283
 31
272.3935238164487
  0
LINE
  5
525
330
1F
100
AcDbEntity
  8
EMNE
100
AcDbLine
 10
1249.31344671728
 20
1511.492970597278
 30
272.3935238164494
 11
1252.313446717276
 21
1511.492970597278
 31
272.3935238164494
  0
LINE
  5
526
330
1F
100
AcDbEntity
  8
EMNE
100
AcDbLine
 10
1249.31344671728
 20
1523.492970597278
 30
272.3935238164478
 11
1252.313446717276
 21
1523.492970597278
 31
272.3935238164478
  0
LINE
  5
527
330
1F
100
AcDbEntity
  8
EMNE
100
AcDbLine
 10
1200.813446717278
 20
1523.492970597278
 30
272.3935238164505
 11
1200.813446717277
 21
1511.492970597279
 31
272.3935238164527
  0
LINE
  5
528
330
1F
100
AcDbEntity
  8
EMNE
100
AcDbLine
 10
1225.313446717277
 20
1529.992970597283
 30
272.393523816449
 11
1225.313446717277
 21
1504.992970597283
 31
272.3935238164505
  0
LINE
  5
529
330
1F
100
AcDbEntity
  8
EMNE
100
AcDbLine
 10
1205.313446717277
 20
1529.992970597283
 30
272.3935238164508
 11
1205.313446717277
 21
1504.992970597283
 31
272.3935238164523
  0
LINE
  5
52A
330
1F
100
AcDbEntity
  8
EMNE
100
AcDbLine
 10
1200.813446717277
 20
1511.492970597279
 30
272.3935238164495
 11
1205.313446717277
 21
1511.492970597279
 31
272.3935238164495
  0
LINE
  5
52B
330
1F
100
AcDbEntity
  8
EMNE
100
AcDbLine
 10
1225.313446717277
 20
1511.492970597278
 30
272.3935238164494
 11
1229.313446717277
 21
1511.492970597278
 31
272.3935238164494
  0
LINE
  5
52C
330
1F
100
AcDbEntity
  8
EMNE
100
AcDbLine
 10
1205.313446717277
 20
1504.992970597283
 30
272.3935238164494
 11
1225.313446717277
 21
1504.992970597283
 31
272.393523816444
  0
LINE
  5
52D
330
1F
100
AcDbEntity
  8
EMNE
100
AcDbLine
 10
1198.313446717273
 20
1509.492970597285
 30
272.3935238164524
 11
1198.313446717273
 21
1494.492970597308
 31
272.3935238164519
  0
LINE
  5
52E
330
1F
100
AcDbEntity
  8
EMNE
100
AcDbLine
 10
1193.313446717273
 20
1509.492970597285
 30
272.3935238164512
 11
1193.313446717273
 21
1494.492970597308
 31
272.393523816452
  0
LINE
  5
52F
330
1F
100
AcDbEntity
  8
EMNE
100
AcDbLine
 10
1193.313446717273
 20
1509.492970597285
 30
272.3935238164515
 11
1198.313446717273
 21
1509.492970597285
 31
272.3935238164029
  0
LINE
  5
530
330
1F
100
AcDbEntity
  8
MIDT
100
AcDbLine
 10
1188.313446717271
 20
1499.477264132219
 30
272.3935238164513
 11
1203.313446717271
 21
1499.477264132218
 31
272.3935238164511
  0
LINE
  5
531
330
1F
100
AcDbEntity
  8
EMNE
100
AcDbLine
 10
1198.313446717273
 20
1509.492970597285
 30
272.3935238164524
 11
1198.313446717273
 21
1494.492970597308
 31
272.3935238164519
  0
LINE
  5
532
330
1F
100
AcDbEntity
  8
EMNE
100
AcDbLine
 10
1208.313446717278
 20
1529.992970597283
 30
272.3935238164501
 11
1216.31344671728
 21
1529.992970597282
 31
272.3935238164508
  0
LINE
  5
533
330
1F
100
AcDbEntity
  8
EMNE
100
AcDbLine
 10
1205.313446717277
 20
1529.992970597283
 30
272.3935238164508
 11
1225.313446717277
 21
1529.992970597283
 31
272.393523816449
  0
LINE
  5
534
330
1F
100
AcDbEntity
  8
EMNE
100
AcDbLine
 10
1200.813446717278
 20
1523.492970597279
 30
272.393523816451
 11
1205.313446717277
 21
1523.492970597279
 31
272.393523816451
  0
LINE
  5
535
330
1F
100
AcDbEntity
  8
EMNE
100
AcDbLine
 10
1225.313446717278
 20
1523.492970597278
 30
272.3935238164494
 11
1229.31344671728
 21
1523.492970597278
 31
272.3935238164492
  0
ARC
  5
536
330
1F
100
AcDbEntity
  8
EMNE
  6
Continuous
100
AcDbCircle
 10
1269.313446717295
 20
1540.49297059727
 30
272.3935238164163
 40
10.0
100
AcDbArc
 50
180.0
 51
270.0
  0
LINE
  5
537
330
1F
100
AcDbEntity
  8
EMNE
100
AcDbLine
 10
1252.313446717276
 20
1523.492970597279
 30
272.393523816451
 11
1252.313446717276
 21
1511.492970597279
 31
272.3935238164527
  0
LINE
  5
538
330
1F
100
AcDbEntity
  8
EMNE
100
AcDbLine
 10
1208.313446717275
 20
1554.992970597283
 30
272.3935238164505
 11
1248.31344671728
 21
1554.99297059728
 31
272.3935238164513
  0
ARC
  5
539
330
1F
100
AcDbEntity
  8
EMNE
  6
Continuous
100
AcDbCircle
 10
1269.313446717295
 20
1589.992970597285
 30
272.3935238164452
 40
10.0
100
AcDbArc
 50
180.0
 51
270.0
  0
LINE
  5
53A
330
1F
100
AcDbEntity
  8
EMNE
  6
Continuous
100
AcDbLine
 10
1969.313446717295
 20
1540.492970597285
 30
272.3935238164504
 11
1969.313446717295
 21
1589.99297059728
 31
272.3935238164511
  0
LINE
  5
53B
330
1F
100
AcDbEntity
  8
EMNE
100
AcDbLine
 10
1999.313446717277
 20
1554.992970597276
 30
272.3935238164482
 11
1999.313446717275
 21
1494.492970597287
 31
272.3935238164496
  0
LINE
  5
53C
330
1F
100
AcDbEntity
  8
EMNE
100
AcDbLine
 10
2012.313446717275
 20
1554.992970597277
 30
272.3935238164474
 11
2012.313446717273
 21
1529.992970597278
 31
272.3935238164472
  0
ARC
  5
53D
330
1F
100
AcDbEntity
  8
EMNE
  6
Continuous
100
AcDbCircle
 10
1959.313446717295
 20
1540.492970597289
 30
272.3935238164557
 40
10.0
100
AcDbArc
 50
270.0
 51
0.0
  0
LINE
  5
53E
330
1F
100
AcDbEntity
  8
EMNE
100
AcDbLine
 10
2030.313446717317
 20
1509.492970597285
 30
272.3935238164524
 11
2030.313446717319
 21
1494.492970597308
 31
272.3935238164519
  0
LINE
  5
53F
330
1F
100
AcDbEntity
  8
EMNE
100
AcDbLine
 10
2030.313446717317
 20
1509.492970597285
 30
272.3935238164524
 11
2030.313446717319
 21
1494.492970597308
 31
272.3935238164519
  0
LINE
  5
540
330
1F
100
AcDbEntity
  8
EMNE
100
AcDbLine
 10
2035.313446717319
 20
1509.492970597285
 30
272.3935238164512
 11
2035.313446717317
 21
1494.492970597308
 31
272.393523816452
  0
LINE
  5
541
330
1F
100
AcDbEntity
  8
MIDT
100
AcDbLine
 10
2040.31344671732
 20
1499.477264132219
 30
272.3935238164513
 11
2025.313446717321
 21
1499.477264132218
 31
272.3935238164511
  0
LINE
  5
542
330
1F
100
AcDbEntity
  8
EMNE
100
AcDbLine
 10
2035.313446717319
 20
1509.492970597285
 30
272.3935238164515
 11
2030.31344671732
 21
1509.492970597285
 31
272.3935238164029
  0
LINE
  5
543
330
1F
100
AcDbEntity
  8
EMNE
100
AcDbLine
 10
1976.313446717273
 20
1523.492970597273
 30
272.3935238164508
 11
1976.313446717273
 21
1511.492970597275
 31
272.393523816452
  0
LINE
  5
544
330
1F
100
AcDbEntity
  8
EMNE
100
AcDbLine
 10
2027.813446717273
 20
1523.492970597273
 30
272.3935238164503
 11
2027.813446717273
 21
1511.492970597273
 31
272.3935238164524
  0
LINE
  5
545
330
1F
100
AcDbEntity
  8
EMNE
100
AcDbLine
 10
2023.313446717273
 20
1529.992970597279
 30
272.3935238164498
 11
2023.313446717275
 21
1504.992970597279
 31
272.393523816451
  0
LINE
  5
546
330
1F
100
AcDbEntity
  8
EMNE
100
AcDbLine
 10
2003.313446717273
 20
1529.992970597279
 30
272.3935238164476
 11
2003.313446717277
 21
1504.992970597279
 31
272.3935238164492
  0
LINE
  5
547
330
1F
100
AcDbEntity
  8
EMNE
100
AcDbLine
 10
1979.313446717275
 20
1511.492970597273
 30
272.3935238164495
 11
1976.313446717273
 21
1511.492970597274
 31
272.3935238164489
  0
LINE
  5
548
330
1F
100
AcDbEntity
  8
EMNE
100
AcDbLine
 10
2027.813446717273
 20
1511.492970597274
 30
272.3935238164482
 11
2023.313446717277
 21
1511.492970597275
 31
272.3935238164491
  0
LINE
  5
549
330
1F
100
AcDbEntity
  8
EMNE
100
AcDbLine
 10
2003.313446717277
 20
1511.492970597273
 30
272.393523816448
 11
1999.313446717273
 21
1511.492970597273
 31
272.39352381645
  0
LINE
  5
54A
330
1F
100
AcDbEntity
  8
EMNE
100
AcDbLine
 10
2023.313446717273
 20
1504.992970597278
 30
272.393523816449
 11
2003.313446717273
 21
1504.992970597279
 31
272.3935238164428
  0
LINE
  5
54B
330
1F
100
AcDbEntity
  8
EMNE
100
AcDbLine
 10
2003.313446717277
 20
1523.492970597274
 30
272.3935238164485
 11
1999.313446717273
 21
1523.492970597273
 31
272.3935238164493
  0
LINE
  5
54C
330
1F
100
AcDbEntity
  8
EMNE
100
AcDbLine
 10
1979.313446717277
 20
1523.492970597275
 30
272.3935238164464
 11
1976.313446717273
 21
1523.492970597274
 31
272.3935238164469
  0
LINE
  5
54D
330
1F
100
AcDbEntity
  8
EMNE
100
AcDbLine
 10
2027.813446717273
 20
1523.492970597273
 30
272.3935238164506
 11
2023.313446717277
 21
1523.492970597274
 31
272.393523816449
  0
LINE
  5
54E
330
1F
100
AcDbEntity
  8
EMNE
100
AcDbLine
 10
2020.313446717273
 20
1529.992970597277
 30
272.3935238164498
 11
2012.313446717273
 21
1529.992970597277
 31
272.3935238164505
  0
LINE
  5
54F
330
1F
100
AcDbEntity
  8
EMNE
100
AcDbLine
 10
2023.313446717273
 20
1529.992970597279
 30
272.3935238164498
 11
2003.313446717273
 21
1529.992970597279
 31
272.3935238164476
  0
ARC
  5
550
330
1F
100
AcDbEntity
  8
EMNE
  6
Continuous
100
AcDbCircle
 10
1959.313446717295
 20
1589.99297059728
 30
272.3935238164511
 40
10.0
100
AcDbArc
 50
270.0
 51
0.0
  0
LINE
  5
551
330
1F
100
AcDbEntity
  8
EMNE
100
AcDbLine
 10
2020.313446717278
 20
1554.992970597279
 30
272.3935238164497
 11
1980.313446717273
 21
1554.992970597275
 31
272.3935238164505
  0
LINE
  5
552
330
1F
100
AcDbEntity
  8
MAAL
100
AcDbLine
 10
1123.317564706349
 20
1696.424949925697
 30
272.3935238164062
 11
1142.49346831999
 21
1669.992970597291
 31
272.3935238164062
  0
LINE
  5
553
330
1F
100
AcDbEntity
  8
MAAL
100
AcDbLine
 10
1123.317564706351
 20
1946.334213494459
 30
272.3935238164512
 11
1142.49346831999
 21
1972.766192822866
 31
272.3935238164512
  0
LINE
  5
554
330
1F
100
AcDbEntity
  8
MAAL
100
AcDbLine
 10
1083.317564706349
 20
1696.424949925695
 30
272.3935238164062
 11
1102.49346831999
 21
1669.992970597291
 31
272.3935238164071
  0
LINE
  5
555
330
1F
100
AcDbEntity
  8
MAAL
100
AcDbLine
 10
1043.317564706349
 20
1696.424949925695
 30
272.3935238164064
 11
1062.49346831999
 21
1669.99297059729
 31
272.3935238164072
  0
LINE
  5
556
330
1F
100
AcDbEntity
  8
MAAL
100
AcDbLine
 10
1043.317564706351
 20
1946.334213494461
 30
272.3935238164514
 11
1062.49346831999
 21
1972.766192822866
 31
272.3935238164523
  0
LINE
  5
557
330
1F
100
AcDbEntity
  8
MAAL
100
AcDbLine
 10
1083.317564706351
 20
1946.334213494461
 30
272.3935238164512
 11
1102.49346831999
 21
1972.766192822866
 31
272.3935238164521
  0
LINE
  5
558
330
1F
100
AcDbEntity
  8
EMNE
100
AcDbLine
 10
1629.31344671728
 20
1659.992970597302
 30
272.3935238164477
 11
1599.313446717277
 21
1659.992970597303
 31
272.3935238164321
  0
LINE
  5
559
330
1F
100
AcDbEntity
  8
EMNE
100
AcDbLine
 10
1599.313446717284
 20
1669.992970597299
 30
272.3935238164519
 11
1629.313446717293
 21
1669.992970597298
 31
272.3935238164472
  0
LINE
  5
55A
330
1F
100
AcDbEntity
  8
EMNE
100
AcDbLine
 10
1969.313446717295
 20
1659.992970597289
 30
272.3935238164477
 11
1259.313446717295
 21
1659.992970597289
 31
272.3935238164499
  0
LINE
  5
55B
330
1F
100
AcDbEntity
  8
MAAL
100
AcDbLine
 10
1363.317564706349
 20
1696.424949925701
 30
272.3935238164045
 11
1382.493468319988
 21
1669.992970597294
 31
272.3935238164054
  0
LINE
  5
55C
330
1F
100
AcDbEntity
  8
EMNE
100
AcDbLine
 10
1346.313446717284
 20
1669.99297059729
 30
272.3935238164519
 11
1386.31344671728
 21
1669.99297059729
 31
272.3935238164499
  0
LINE
  5
55D
330
1F
100
AcDbEntity
  8
EMNE
100
AcDbLine
 10
1216.31344671728
 20
1659.992970597291
 30
272.3935238164508
 11
1216.313446717282
 21
1629.992970597283
 31
272.39352381645
  0
LINE
  5
55E
330
1F
100
AcDbEntity
  8
EMNE
100
AcDbLine
 10
1259.313446717295
 20
1651.992970597292
 30
272.3935238164497
 11
1224.31344671728
 21
1651.992970597291
 31
272.3935238164494
  0
LINE
  5
55F
330
1F
100
AcDbEntity
  8
EMNE
100
AcDbLine
 10
1208.31344671728
 20
1629.992970597283
 30
272.3935238164515
 11
1248.313446717278
 21
1629.992970597282
 31
272.3935238164504
  0
LINE
  5
560
330
1F
100
AcDbEntity
  8
EMNE
100
AcDbLine
 10
1248.31344671728
 20
1614.492970597282
 30
272.3935238164487
 11
1249.31344671728
 21
1614.492970597282
 31
272.3935238164489
  0
LINE
  5
561
330
1F
100
AcDbEntity
  8
EMNE
100
AcDbLine
 10
1208.31344671728
 20
1629.992970597286
 30
272.3935238164506
 11
1216.31344671728
 21
1629.992970597285
 31
272.3935238164489
  0
LINE
  5
562
330
1F
100
AcDbEntity
  8
EMNE
100
AcDbLine
 10
1224.31344671728
 20
1651.992970597291
 30
272.3935238164501
 11
1224.31344671728
 21
1629.992970597283
 31
272.39352381645
  0
LINE
  5
563
330
1F
100
AcDbEntity
  8
MAAL
100
AcDbLine
 10
1243.317564706349
 20
1696.4249499257
 30
272.3935238164054
 11
1262.493468319988
 21
1669.992970597293
 31
272.3935238164054
  0
LINE
  5
564
330
1F
100
AcDbEntity
  8
MAAL
100
AcDbLine
 10
1243.317564706349
 20
1696.424949925698
 30
272.3935238164054
 11
1262.493468319988
 21
1669.992970597291
 31
272.3935238164054
  0
LINE
  5
565
330
1F
100
AcDbEntity
  8
EMNE
100
AcDbLine
 10
1266.313446717276
 20
1659.992970597291
 30
272.3935238164497
 11
1216.31344671728
 21
1659.992970597291
 31
272.3935238164485
  0
LINE
  5
566
330
1F
100
AcDbEntity
  8
MAAL
100
AcDbLine
 10
1203.317564706349
 20
1696.424949925699
 30
272.3935238164054
 11
1222.493468319988
 21
1669.992970597293
 31
272.3935238164063
  0
LINE
  5
567
330
1F
100
AcDbEntity
  8
MAAL
100
AcDbLine
 10
1163.317564706349
 20
1696.424949925698
 30
272.3935238164052
 11
1182.49346831999
 21
1669.992970597292
 31
272.3935238164062
  0
LINE
  5
568
330
1F
100
AcDbEntity
  8
MAAL
100
AcDbLine
 10
1323.317564706349
 20
1696.4249499257
 30
272.3935238164045
 11
1342.493468319988
 21
1669.992970597294
 31
272.3935238164054
  0
LINE
  5
569
330
1F
100
AcDbEntity
  8
MAAL
100
AcDbLine
 10
1283.317564706349
 20
1696.4249499257
 30
272.3935238164063
 11
1302.493468319988
 21
1669.992970597293
 31
272.3935238164054
  0
LINE
  5
56A
330
1F
100
AcDbEntity
  8
EMNE
100
AcDbLine
 10
1336.313446717291
 20
1669.992970597301
 30
272.3935238164546
 11
1336.313446717291
 21
1659.992970597304
 31
272.3935238164544
  0
LINE
  5
56B
330
1F
100
AcDbEntity
  8
EMNE
100
AcDbLine
 10
1366.313446717302
 20
1669.9929705973
 30
272.3935238164503
 11
1366.313446717298
 21
1659.992970597303
 31
272.39352381645
  0
LINE
  5
56C
330
1F
100
AcDbEntity
  8
EMNE
100
AcDbLine
 10
1366.313446717295
 20
1659.992970597303
 30
272.3935238164504
 11
1336.313446717291
 21
1659.992970597304
 31
272.3935238164354
  0
LINE
  5
56D
330
1F
100
AcDbEntity
  8
EMNE
100
AcDbLine
 10
1336.313446717295
 20
1669.992970597301
 30
272.3935238164541
 11
1366.313446717307
 21
1669.9929705973
 31
272.3935238164501
  0
LINE
  5
56E
330
1F
100
AcDbEntity
  8
MAAL
100
AcDbLine
 10
1483.317564706349
 20
1696.424949925702
 30
272.3935238164045
 11
1502.493468319988
 21
1669.992970597295
 31
272.3935238164045
  0
LINE
  5
56F
330
1F
100
AcDbEntity
  8
MAAL
100
AcDbLine
 10
1443.317564706349
 20
1696.424949925701
 30
272.3935238164045
 11
1462.493468319988
 21
1669.992970597295
 31
272.3935238164054
  0
LINE
  5
570
330
1F
100
AcDbEntity
  8
MAAL
100
AcDbLine
 10
1403.317564706349
 20
1696.424949925701
 30
272.3935238164045
 11
1422.493468319988
 21
1669.992970597294
 31
272.3935238164054
  0
LINE
  5
571
330
1F
100
AcDbEntity
  8
EMNE
100
AcDbLine
 10
1386.31344671728
 20
1669.992970597291
 30
272.3935238164501
 11
1386.31344671728
 21
1659.992970597289
 31
272.3935238164501
  0
LINE
  5
572
330
1F
100
AcDbEntity
  8
MAAL
100
AcDbLine
 10
1563.317564706349
 20
1696.424949925702
 30
272.3935238164045
 11
1582.493468319988
 21
1669.992970597296
 31
272.3935238164045
  0
LINE
  5
573
330
1F
100
AcDbEntity
  8
MAAL
100
AcDbLine
 10
1523.317564706349
 20
1696.424949925702
 30
272.3935238164045
 11
1542.493468319988
 21
1669.992970597296
 31
272.3935238164045
  0
LINE
  5
574
330
1F
100
AcDbEntity
  8
EMNE
100
AcDbLine
 10
1599.31344671728
 20
1669.992970597299
 30
272.3935238164517
 11
1599.31344671728
 21
1659.992970597303
 31
272.3935238164513
  0
LINE
  5
575
330
1F
100
AcDbEntity
  8
MAAL
100
AcDbLine
 10
1683.317564706349
 20
1696.424949925701
 30
272.3935238164045
 11
1702.493468319988
 21
1669.992970597295
 31
272.3935238164045
  0
LINE
  5
576
330
1F
100
AcDbEntity
  8
MAAL
100
AcDbLine
 10
1603.317564706349
 20
1696.424949925703
 30
272.3935238164045
 11
1622.493468319988
 21
1669.992970597296
 31
272.3935238164045
  0
LINE
  5
577
330
1F
100
AcDbEntity
  8
MAAL
100
AcDbLine
 10
1643.317564706349
 20
1696.424949925701
 30
272.3935238164045
 11
1662.493468319988
 21
1669.992970597297
 31
272.3935238164045
  0
LINE
  5
578
330
1F
100
AcDbEntity
  8
EMNE
100
AcDbLine
 10
1629.313446717288
 20
1669.992970597298
 30
272.3935238164477
 11
1629.313446717288
 21
1659.992970597301
 31
272.3935238164469
  0
LINE
  5
579
330
1F
100
AcDbEntity
  8
MAAL
100
AcDbLine
 10
1763.317564706349
 20
1696.424949925702
 30
272.3935238164036
 11
1782.493468319988
 21
1669.992970597296
 31
272.3935238164036
  0
LINE
  5
57A
330
1F
100
AcDbEntity
  8
MAAL
100
AcDbLine
 10
1803.317564706349
 20
1696.424949925703
 30
272.3935238164036
 11
1822.493468319988
 21
1669.992970597296
 31
272.3935238164036
  0
LINE
  5
57B
330
1F
100
AcDbEntity
  8
MAAL
100
AcDbLine
 10
1723.317564706349
 20
1696.424949925702
 30
272.3935238164036
 11
1742.493468319988
 21
1669.992970597295
 31
272.3935238164036
  0
LINE
  5
57C
330
1F
100
AcDbEntity
  8
EMNE
100
AcDbLine
 10
2012.313446717273
 20
1659.992970597285
 30
272.3935238164507
 11
2012.313446717273
 21
1629.992970597278
 31
272.3935238164499
  0
LINE
  5
57D
330
1F
100
AcDbEntity
  8
EMNE
100
AcDbLine
 10
1969.313446717295
 20
1651.992970597287
 30
272.393523816449
 11
2004.313446717273
 21
1651.992970597286
 31
272.3935238164484
  0
LINE
  5
57E
330
1F
100
AcDbEntity
  8
EMNE
100
AcDbLine
 10
2020.313446717273
 20
1629.992970597278
 30
272.3935238164519
 11
1980.313446717275
 21
1629.992970597277
 31
272.3935238164498
  0
LINE
  5
57F
330
1F
100
AcDbEntity
  8
EMNE
100
AcDbLine
 10
1980.313446717277
 20
1614.492970597278
 30
272.3935238164478
 11
1979.313446717273
 21
1614.492970597278
 31
272.3935238164494
  0
LINE
  5
580
330
1F
100
AcDbEntity
  8
EMNE
100
AcDbLine
 10
2020.313446717275
 20
1629.992970597281
 30
272.3935238164499
 11
2012.313446717273
 21
1629.99297059728
 31
272.3935238164486
  0
LINE
  5
581
330
1F
100
AcDbEntity
  8
EMNE
100
AcDbLine
 10
2004.313446717273
 20
1651.992970597286
 30
272.3935238164493
 11
2004.313446717273
 21
1629.992970597278
 31
272.3935238164494
  0
LINE
  5
582
330
1F
100
AcDbEntity
  8
MAAL
100
AcDbLine
 10
1883.317564706349
 20
1696.424949925703
 30
272.3935238164045
 11
1902.493468319988
 21
1669.992970597297
 31
272.3935238164036
  0
LINE
  5
583
330
1F
100
AcDbEntity
  8
MAAL
100
AcDbLine
 10
1923.317564706349
 20
1696.424949925704
 30
272.3935238164036
 11
1942.493468319988
 21
1669.992970597297
 31
272.3935238164027
  0
LINE
  5
584
330
1F
100
AcDbEntity
  8
MAAL
100
AcDbLine
 10
1843.317564706349
 20
1696.424949925703
 30
272.3935238164036
 11
1862.493468319988
 21
1669.992970597297
 31
272.3935238164036
  0
LINE
  5
585
330
1F
100
AcDbEntity
  8
EMNE
100
AcDbLine
 10
1892.313446717287
 20
1669.992970597297
 30
272.3935238164484
 11
1892.313446717284
 21
1659.9929705973
 31
272.3935238164478
  0
LINE
  5
586
330
1F
100
AcDbEntity
  8
EMNE
100
AcDbLine
 10
1862.313446717277
 20
1669.992970597297
 30
272.3935238164524
 11
1862.313446717277
 21
1659.992970597302
 31
272.393523816452
  0
LINE
  5
587
330
1F
100
AcDbEntity
  8
EMNE
100
AcDbLine
 10
1892.31344671728
 20
1659.992970597301
 30
272.3935238164482
 11
1862.313446717277
 21
1659.992970597302
 31
272.3935238164328
  0
LINE
  5
588
330
1F
100
AcDbEntity
  8
EMNE
100
AcDbLine
 10
1882.313446717273
 20
1669.992970597286
 30
272.3935238164507
 11
1842.313446717273
 21
1669.992970597286
 31
272.393523816449
  0
LINE
  5
589
330
1F
100
AcDbEntity
  8
EMNE
100
AcDbLine
 10
1862.313446717284
 20
1669.992970597298
 30
272.3935238164526
 11
1892.313446717291
 21
1669.992970597298
 31
272.3935238164486
  0
LINE
  5
58A
330
1F
100
AcDbEntity
  8
EMNE
100
AcDbLine
 10
1842.313446717273
 20
1669.992970597287
 30
272.3935238164489
 11
1842.313446717273
 21
1659.992970597289
 31
272.3935238164489
  0
LINE
  5
58B
330
1F
100
AcDbEntity
  8
MAAL
100
AcDbLine
 10
2003.317564706349
 20
1696.424949925703
 30
272.3935238164036
 11
2022.493468319988
 21
1669.992970597298
 31
272.3935238164027
  0
LINE
  5
58C
330
1F
100
AcDbEntity
  8
MAAL
100
AcDbLine
 10
2043.317564706349
 20
1696.424949925703
 30
272.3935238164027
 11
2062.493468319988
 21
1669.992970597299
 31
272.3935238164027
  0
LINE
  5
58D
330
1F
100
AcDbEntity
  8
MAAL
100
AcDbLine
 10
1963.317564706349
 20
1696.424949925704
 30
272.3935238164036
 11
1982.493468319988
 21
1669.992970597298
 31
272.3935238164027
  0
LINE
  5
58E
330
1F
100
AcDbEntity
  8
EMNE
100
AcDbLine
 10
1969.313446717295
 20
1659.992970597287
 30
272.3935238164486
 11
2012.313446717273
 21
1659.992970597286
 31
272.393523816448
  0
LINE
  5
58F
330
1F
100
AcDbEntity
  8
MAAL
100
AcDbLine
 10
1583.317564706349
 20
1946.334213494458
 30
272.3935238164495
 11
1602.493468319988
 21
1972.766192822865
 31
272.3935238164495
  0
LINE
  5
590
330
1F
100
AcDbEntity
  8
EMNE
100
AcDbLine
 10
1259.313446717295
 20
1992.766192822864
 30
272.3935238164504
 11
1969.313446717295
 21
1992.766192822865
 31
272.3935238164477
  0
LINE
  5
591
330
1F
100
AcDbEntity
  8
MAAL
100
AcDbLine
 10
1163.317564706351
 20
1946.334213494459
 30
272.3935238164503
 11
1182.49346831999
 21
1972.766192822866
 31
272.3935238164512
  0
LINE
  5
592
330
1F
100
AcDbEntity
  8
MAAL
100
AcDbLine
 10
1303.317564706349
 20
1946.334213494458
 30
272.3935238164504
 11
1322.493468319988
 21
1972.766192822863
 31
272.3935238164504
  0
LINE
  5
593
330
1F
100
AcDbEntity
  8
MAAL
100
AcDbLine
 10
1343.317564706349
 20
1946.334213494458
 30
272.3935238164495
 11
1362.493468319988
 21
1972.766192822865
 31
272.3935238164504
  0
LINE
  5
594
330
1F
100
AcDbEntity
  8
MAAL
100
AcDbLine
 10
1383.317564706349
 20
1946.334213494458
 30
272.3935238164495
 11
1402.493468319988
 21
1972.766192822865
 31
272.3935238164504
  0
LINE
  5
595
330
1F
100
AcDbEntity
  8
MAAL
100
AcDbLine
 10
1423.317564706349
 20
1946.334213494458
 30
272.3935238164495
 11
1442.493468319988
 21
1972.766192822865
 31
272.3935238164513
  0
LINE
  5
596
330
1F
100
AcDbEntity
  8
MAAL
100
AcDbLine
 10
1463.317564706349
 20
1946.334213494458
 30
272.3935238164495
 11
1482.493468319988
 21
1972.766192822865
 31
272.3935238164504
  0
LINE
  5
597
330
1F
100
AcDbEntity
  8
MAAL
100
AcDbLine
 10
1503.317564706349
 20
1946.334213494458
 30
272.3935238164486
 11
1522.493468319988
 21
1972.766192822865
 31
272.3935238164495
  0
LINE
  5
598
330
1F
100
AcDbEntity
  8
MAAL
100
AcDbLine
 10
1543.317564706349
 20
1946.334213494458
 30
272.3935238164486
 11
1562.493468319988
 21
1972.766192822865
 31
272.3935238164495
  0
LINE
  5
599
330
1F
100
AcDbEntity
  8
MAAL
100
AcDbLine
 10
1263.317564706349
 20
1946.334213494458
 30
272.3935238164504
 11
1282.493468319988
 21
1972.766192822865
 31
272.3935238164513
  0
LINE
  5
59A
330
1F
100
AcDbEntity
  8
MAAL
100
AcDbLine
 10
1303.317564706349
 20
1946.334213494458
 30
272.3935238164495
 11
1322.493468319988
 21
1972.766192822865
 31
272.3935238164495
  0
LINE
  5
59B
330
1F
100
AcDbEntity
  8
MAAL
100
AcDbLine
 10
1223.317564706349
 20
1946.334213494461
 30
272.3935238164504
 11
1242.493468319988
 21
1972.766192822865
 31
272.3935238164513
  0
LINE
  5
59C
330
1F
100
AcDbEntity
  8
EMNE
100
AcDbLine
 10
1362.932797379979
 20
1972.766192822863
 30
272.3935238164504
 11
1394.932797379979
 21
1972.766192822863
 31
272.3935238164504
  0
LINE
  5
59D
330
1F
100
AcDbEntity
  8
EMNE
100
AcDbLine
 10
1339.313446717298
 20
1987.766192822862
 30
272.3935238164513
 11
1317.313446717298
 21
1987.76619282286
 31
272.3935238164504
  0
LINE
  5
59E
330
1F
100
AcDbEntity
  8
EMNE
100
AcDbLine
 10
1317.313446717298
 20
1992.766192822861
 30
272.3935238164513
 11
1317.313446717298
 21
1987.766192822862
 31
272.3935238164513
  0
LINE
  5
59F
330
1F
100
AcDbEntity
  8
EMNE
100
AcDbLine
 10
1344.313446717298
 20
1980.766192822864
 30
272.3935238164504
 11
1344.313446717298
 21
1972.766192822865
 31
272.3935238164504
  0
LINE
  5
5A0
330
1F
100
AcDbEntity
  8
EMNE
100
AcDbLine
 10
1312.313446717298
 20
1980.766192822864
 30
272.3935238164504
 11
1312.313446717298
 21
1972.766192822863
 31
272.3935238164513
  0
LINE
  5
5A1
330
1F
100
AcDbEntity
  8
EMNE
100
AcDbLine
 10
1312.313446717298
 20
1972.766192822863
 30
272.3935238164513
 11
1344.313446717298
 21
1972.766192822865
 31
272.3935238164504
  0
LINE
  5
5A2
330
1F
100
AcDbEntity
  8
EMNE
100
AcDbLine
 10
1312.313446717298
 20
1980.766192822864
 30
272.3935238164504
 11
1344.313446717298
 21
1980.766192822864
 31
272.3935238164504
  0
LINE
  5
5A3
330
1F
100
AcDbEntity
  8
EMNE
100
AcDbLine
 10
1333.313446717298
 20
1992.766192822864
 30
272.3935238164504
 11
1333.313446717298
 21
1980.766192822864
 31
272.3935238164504
  0
LINE
  5
5A4
330
1F
100
AcDbEntity
  8
EMNE
100
AcDbLine
 10
1323.313446717298
 20
1992.766192822864
 30
272.3935238164513
 11
1323.313446717298
 21
1980.766192822864
 31
272.3935238164504
  0
LINE
  5
5A5
330
1F
100
AcDbEntity
  8
EMNE
100
AcDbLine
 10
1339.313446717298
 20
1992.766192822861
 30
272.3935238164513
 11
1339.313446717298
 21
1987.766192822862
 31
272.3935238164513
  0
LINE
  5
5A6
330
1F
100
AcDbEntity
  8
MAAL
100
AcDbLine
 10
1823.317564706349
 20
1946.334213494461
 30
272.3935238164486
 11
1842.493468319988
 21
1972.766192822867
 31
272.3935238164486
  0
LINE
  5
5A7
330
1F
100
AcDbEntity
  8
MAAL
100
AcDbLine
 10
1623.317564706349
 20
1946.334213494461
 30
272.3935238164495
 11
1642.493468319988
 21
1972.766192822865
 31
272.3935238164495
  0
LINE
  5
5A8
330
1F
100
AcDbEntity
  8
MAAL
100
AcDbLine
 10
1663.317564706349
 20
1946.334213494458
 30
272.3935238164495
 11
1682.493468319988
 21
1972.766192822867
 31
272.3935238164495
  0
LINE
  5
5A9
330
1F
100
AcDbEntity
  8
MAAL
100
AcDbLine
 10
1703.317564706349
 20
1946.334213494461
 30
272.3935238164495
 11
1722.493468319988
 21
1972.766192822867
 31
272.3935238164486
  0
LINE
  5
5AA
330
1F
100
AcDbEntity
  8
MAAL
100
AcDbLine
 10
1743.317564706349
 20
1946.334213494461
 30
272.3935238164486
 11
1762.493468319988
 21
1972.766192822867
 31
272.3935238164486
  0
LINE
  5
5AB
330
1F
100
AcDbEntity
  8
MAAL
100
AcDbLine
 10
1783.317564706349
 20
1946.334213494461
 30
272.3935238164486
 11
1802.493468319988
 21
1972.766192822867
 31
272.3935238164486
  0
LINE
  5
5AC
330
1F
100
AcDbEntity
  8
MAAL
100
AcDbLine
 10
1903.317564706349
 20
1946.334213494461
 30
272.3935238164495
 11
1922.493468319988
 21
1972.766192822867
 31
272.3935238164477
  0
LINE
  5
5AD
330
1F
100
AcDbEntity
  8
MAAL
100
AcDbLine
 10
1943.317564706349
 20
1946.334213494461
 30
272.3935238164486
 11
1962.493468319988
 21
1972.766192822867
 31
272.3935238164477
  0
LINE
  5
5AE
330
1F
100
AcDbEntity
  8
MAAL
100
AcDbLine
 10
1983.317564706349
 20
1946.334213494462
 30
272.3935238164486
 11
2002.493468319988
 21
1972.766192822867
 31
272.3935238164477
  0
LINE
  5
5AF
330
1F
100
AcDbEntity
  8
MAAL
100
AcDbLine
 10
2043.317564706349
 20
1946.334213494462
 30
272.3935238164477
 11
2062.493468319988
 21
1972.766192822867
 31
272.3935238164477
  0
LINE
  5
5B0
330
1F
100
AcDbEntity
  8
MAAL
100
AcDbLine
 10
1863.317564706349
 20
1946.334213494461
 30
272.3935238164486
 11
1882.493468319988
 21
1972.766192822867
 31
272.3935238164486
  0
LINE
  5
5B1
330
1F
100
AcDbEntity
  8
EMNE
100
AcDbLine
 10
1934.932797379983
 20
1972.76619282288
 30
272.3935238164486
 11
1966.932797379979
 21
1972.76619282288
 31
272.3935238164486
  0
LINE
  5
5B2
330
1F
100
AcDbEntity
  8
EMNE
100
AcDbLine
 10
1889.313446717298
 20
1992.766192822869
 30
272.3935238164513
 11
1889.313446717298
 21
1987.766192822869
 31
272.3935238164504
  0
LINE
  5
5B3
330
1F
100
AcDbEntity
  8
EMNE
100
AcDbLine
 10
1911.313446717299
 20
1992.766192822869
 30
272.3935238164513
 11
1911.313446717299
 21
1987.766192822869
 31
272.3935238164513
  0
LINE
  5
5B4
330
1F
100
AcDbEntity
  8
EMNE
100
AcDbLine
 10
1889.313446717298
 20
1987.766192822869
 30
272.3935238164504
 11
1911.313446717299
 21
1987.766192822867
 31
272.3935238164504
  0
LINE
  5
5B5
330
1F
100
AcDbEntity
  8
EMNE
100
AcDbLine
 10
1916.313446717299
 20
1972.766192822871
 30
272.3935238164486
 11
1884.313446717299
 21
1972.766192822871
 31
272.3935238164486
  0
LINE
  5
5B6
330
1F
100
AcDbEntity
  8
EMNE
100
AcDbLine
 10
1916.313446717299
 20
1980.766192822871
 30
272.3935238164486
 11
1916.313446717299
 21
1972.766192822871
 31
272.3935238164486
  0
LINE
  5
5B7
330
1F
100
AcDbEntity
  8
EMNE
100
AcDbLine
 10
1916.313446717299
 20
1980.766192822871
 30
272.3935238164486
 11
1884.313446717299
 21
1980.766192822871
 31
272.3935238164495
  0
LINE
  5
5B8
330
1F
100
AcDbEntity
  8
EMNE
100
AcDbLine
 10
1884.313446717299
 20
1980.766192822871
 30
272.3935238164495
 11
1884.313446717299
 21
1972.766192822871
 31
272.3935238164486
  0
LINE
  5
5B9
330
1F
100
AcDbEntity
  8
EMNE
100
AcDbLine
 10
1895.313446717299
 20
1992.766192822871
 30
272.3935238164495
 11
1895.313446717299
 21
1980.766192822871
 31
272.3935238164495
  0
LINE
  5
5BA
330
1F
100
AcDbEntity
  8
EMNE
100
AcDbLine
 10
1905.313446717298
 20
1992.766192822871
 30
272.3935238164495
 11
1905.313446717298
 21
1980.766192822872
 31
272.3935238164495
  0
LINE
  5
5BB
330
1F
100
AcDbEntity
  8
MAAL
100
AcDbLine
 10
2163.317564706349
 20
1696.424949925703
 30
272.3935238164028
 11
2182.493468319988
 21
1669.992970597299
 31
272.3935238164019
  0
LINE
  5
5BC
330
1F
100
AcDbEntity
  8
MAAL
100
AcDbLine
 10
2123.317564706349
 20
1696.424949925704
 30
272.3935238164028
 11
2142.493468319988
 21
1669.992970597299
 31
272.3935238164019
  0
LINE
  5
5BD
330
1F
100
AcDbEntity
  8
MAAL
100
AcDbLine
 10
2083.317564706349
 20
1696.424949925704
 30
272.3935238164028
 11
2102.493468319988
 21
1669.992970597298
 31
272.3935238164019
  0
LINE
  5
5BE
330
1F
100
AcDbEntity
  8
MAAL
100
AcDbLine
 10
2163.317564706349
 20
1946.334213494463
 30
272.3935238164478
 11
2182.493468319988
 21
1972.766192822868
 31
272.3935238164469
  0
LINE
  5
5BF
330
1F
100
AcDbEntity
  8
MAAL
100
AcDbLine
 10
2123.317564706349
 20
1946.334213494461
 30
272.3935238164478
 11
2142.493468319988
 21
1972.766192822868
 31
272.3935238164469
  0
LINE
  5
5C0
330
1F
100
AcDbEntity
  8
MAAL
100
AcDbLine
 10
2083.317564706349
 20
1946.334213494461
 30
272.3935238164478
 11
2102.493468319988
 21
1972.766192822868
 31
272.3935238164469
  0
DIMENSION
  5
5C1
330
1F
100
AcDbEntity
  8
MAAL
  6
Continuous
100
AcDbDimension
  2
*D17
 10
1969.313446717295
 20
3220.798296445562
 30
0.0
 11
1614.313446717295
 21
3253.298296445561
 31
0.0
 70
    32
  1
<>0
 71
     5
 42
71.0
  3
ROPOX
100
AcDbAlignedDimension
 13
1259.313446717295
 23
3107.266192822849
 33
272.3935238164516
 14
1969.313446717295
 24
3107.266192822853
 34
272.3935238164477
100
AcDbRotatedDimension
1001
ACAD
1000
DSTYLE
1002
{
1070
   144
1040
0.1
1002
}
  0
LINE
  5
5C2
330
1F
100
AcDbEntity
  8
EMNE
100
AcDbLine
 10
1969.313446717295
 20
2272.766192822867
 30
272.3935238164477
 11
1969.313446717295
 21
3107.266192822853
 31
272.3935238164477
  0
LINE
  5
5C3
330
1F
100
AcDbEntity
  8
EMNE
100
AcDbLine
 10
1259.313446717295
 20
3107.266192822849
 30
272.3935238164516
 11
1259.313446717295
 21
2272.766192822865
 31
272.3935238164508
  0
LINE
  5
5C4
330
1F
100
AcDbEntity
  8
STIPLET
100
AcDbLine
 10
814.3134467172822
 20
2972.766192822863
 30
272.3935238164525
 11
2414.313446717284
 21
2972.766192822869
 31
272.393523816448
  0
LINE
  5
5C5
330
1F
100
AcDbEntity
  8
EMNE
100
AcDbLine
 10
941.8134467172185
 20
2202.766192823682
 30
272.3935238164489
 11
2286.813446717226
 21
2202.766192823685
 31
272.3935238164444
  0
LINE
  5
5C6
330
1F
100
AcDbEntity
  8
EMNE
100
AcDbLine
 10
814.313446717284
 20
2252.766192822863
 30
272.3935238164525
 11
2414.313446717288
 21
2252.766192822869
 31
272.3935238164471
  0
LINE
  5
5C7
330
1F
100
AcDbEntity
  8
EMNE
100
AcDbLine
 10
941.8134467172768
 20
2252.766192823678
 30
272.3935238164553
 11
2286.813446717292
 21
2252.766192822052
 31
272.3935238164462
  0
LINE
  5
5C8
330
1F
100
AcDbEntity
  8
EMNE
100
AcDbLine
 10
814.313446717284
 20
2272.766192822863
 30
272.3935238164525
 11
2414.313446717288
 21
2272.766192822869
 31
272.393523816448
  0
LINE
  5
5C9
330
1F
100
AcDbEntity
  8
STIPLET
100
AcDbLine
 10
941.8134467172167
 20
2902.766192823682
 30
272.3935238164489
 11
2286.813446717224
 21
2902.766192823685
 31
272.3935238164444
  0
LINE
  5
5CA
330
1F
100
AcDbEntity
  8
STIPLET
100
AcDbLine
 10
814.3134467172822
 20
2952.766192822863
 30
272.3935238164525
 11
2414.313446717284
 21
2952.766192822869
 31
272.3935238164471
  0
LINE
  5
5CB
330
1F
100
AcDbEntity
  8
STIPLET
100
AcDbLine
 10
941.8134467172748
 20
2952.766192823678
 30
272.3935238164553
 11
2286.813446717289
 21
2952.766192822052
 31
272.3935238164462
  0
LINE
  5
5CC
330
1F
100
AcDbEntity
  8
EMNE
100
AcDbLine
 10
941.8134467172185
 20
2202.766192823682
 30
272.3935238164489
 11
941.8134467172841
 21
2252.766192823676
 31
272.3935238164507
  0
LINE
  5
5CD
330
1F
100
AcDbEntity
  8
EMNE
100
AcDbLine
 10
961.8134467172184
 20
2202.766192823649
 30
272.3935238164462
 11
961.8134467172767
 21
2252.766192823651
 31
272.3935238164471
  0
LINE
  5
5CE
330
1F
100
AcDbEntity
  8
EMNE
100
AcDbLine
 10
814.313446717284
 20
2272.766192822862
 30
272.3935238164525
 11
814.313446717284
 21
2252.766192822862
 31
272.3935238164525
  0
POINT
  5
5CF
330
1F
100
AcDbEntity
  8
Defpoints
  6
ByBlock
 62
     0
100
AcDbPoint
 10
814.313446717284
 20
2272.766192822863
 30
272.3935238164525
  0
LINE
  5
5D0
330
1F
100
AcDbEntity
  8
EMNE
100
AcDbLine
 10
1969.313446717295
 20
2157.766192822851
 30
272.3935238164486
 11
1259.313446717295
 21
2157.766192822847
 31
272.3935238164513
  0
LINE
  5
5D1
330
1F
100
AcDbEntity
  8
EMNE
100
AcDbLine
 10
1969.313446717295
 20
2157.766192822851
 30
272.3935238164486
 11
1259.313446717295
 21
2157.766192822847
 31
272.3935238164513
  0
LINE
  5
5D2
330
1F
100
AcDbEntity
  8
EMNE
100
AcDbLine
 10
1208.313446717288
 20
2202.766192823351
 30
272.393523816448
 11
1208.313446717291
 21
2102.766192823341
 31
272.3935238164489
  0
LINE
  5
5D3
330
1F
100
AcDbEntity
  8
EMNE
100
AcDbLine
 10
1216.313446717288
 20
2202.766192823341
 30
272.393523816448
 11
1216.313446717288
 21
2102.766192823339
 31
272.3935238164471
  0
LINE
  5
5D4
330
1F
100
AcDbEntity
  8
EMNE
100
AcDbLine
 10
1224.313446717291
 20
2202.766192823331
 30
272.393523816448
 11
1224.313446717288
 21
2122.76619282334
 31
272.3935238164471
  0
LINE
  5
5D5
330
1F
100
AcDbEntity
  8
EMNE
100
AcDbLine
 10
1216.313446717291
 20
2122.766192823322
 30
272.3935238164471
 11
1216.313446717288
 21
2202.766192823341
 31
272.3935238164471
  0
ARC
  5
5D6
330
1F
100
AcDbEntity
  8
EMNE
100
AcDbCircle
 10
1212.313446717326
 20
2113.601041433411
 30
272.3935238164362
 40
10.0
100
AcDbArc
 50
293.5781784779651
 51
66.42182152203492
  0
LINE
  5
5D7
330
1F
100
AcDbEntity
  8
EMNE
100
AcDbLine
 10
1198.313446717287
 20
2111.766192823353
 30
272.3935238164453
 11
1198.313446717287
 21
2127.766192823353
 31
272.3935238164435
  0
ARC
  5
5D8
330
1F
100
AcDbEntity
  8
EMNE
100
AcDbCircle
 10
1212.313446717326
 20
2113.601041433411
 30
272.3935238164362
 40
10.0
100
AcDbArc
 50
190.5728093003757
 51
246.4218215215799
  0
LINE
  5
5D9
330
1F
100
AcDbEntity
  8
EMNE
100
AcDbLine
 10
1216.313446717288
 20
2102.76619282334
 30
272.3935238164498
 11
1208.313446717291
 21
2102.766192823341
 31
272.3935238164489
  0
LINE
  5
5DA
330
1F
100
AcDbEntity
  8
EMNE
100
AcDbLine
 10
1208.313446717291
 20
2111.766192823353
 30
272.3935238164453
 11
1198.313446717287
 21
2111.766192823353
 31
272.3935238164453
  0
LINE
  5
5DB
330
1F
100
AcDbEntity
  8
EMNE
100
AcDbLine
 10
1259.313446717295
 20
2122.766192823322
 30
272.3935238164471
 11
1216.313446717291
 21
2122.76619282332
 31
272.393523816448
  0
LINE
  5
5DC
330
1F
100
AcDbEntity
  8
EMNE
100
AcDbLine
 10
1208.313446717288
 20
2150.766192823335
 30
272.3935238164462
 11
1194.313446717291
 21
2150.766192823335
 31
272.3935238164471
  0
LINE
  5
5DD
330
1F
100
AcDbEntity
  8
EMNE
100
AcDbLine
 10
1193.313446717291
 20
2149.766192823335
 30
272.393523816448
 11
1194.313446717291
 21
2150.766192823335
 31
272.3935238164471
  0
LINE
  5
5DE
330
1F
100
AcDbEntity
  8
EMNE
100
AcDbLine
 10
1208.313446717288
 20
2140.766192823334
 30
272.3935238164471
 11
1194.313446717291
 21
2140.766192823334
 31
272.3935238164471
  0
LINE
  5
5DF
330
1F
100
AcDbEntity
  8
EMNE
100
AcDbLine
 10
1193.313446717291
 20
2141.766192823334
 30
272.393523816448
 11
1194.313446717291
 21
2140.766192823334
 31
272.3935238164471
  0
LINE
  5
5E0
330
1F
100
AcDbEntity
  8
EMNE
100
AcDbLine
 10
1208.313446717288
 20
2127.766192823353
 30
272.3935238164453
 11
1198.313446717287
 21
2127.766192823353
 31
272.3935238164453
  0
LINE
  5
5E1
330
1F
100
AcDbEntity
  8
EMNE
100
AcDbLine
 10
1193.313446717291
 20
2149.766192823335
 30
272.393523816448
 11
1193.313446717291
 21
2141.766192823335
 31
272.393523816448
  0
LINE
  5
5E2
330
1F
100
AcDbEntity
  8
EMNE
100
AcDbLine
 10
1194.313446717291
 20
2150.766192823336
 30
272.3935238164471
 11
1194.313446717288
 21
2140.766192823336
 31
272.3935238164471
  0
LINE
  5
5E3
330
1F
100
AcDbEntity
  8
EMNE
100
AcDbLine
 10
1229.313446717222
 20
2202.766192823684
 30
272.3935238164466
 11
1229.313446717287
 21
2252.766192823678
 31
272.3935238164485
  0
LINE
  5
5E4
330
1F
100
AcDbEntity
  8
EMNE
100
AcDbLine
 10
1249.313446717222
 20
2202.766192823651
 30
272.3935238164439
 11
1249.31344671728
 21
2252.766192823653
 31
272.3935238164448
  0
LINE
  5
5E5
330
1F
100
AcDbEntity
  8
EMNE
100
AcDbLine
 10
1193.313446717273
 20
2202.766192823363
 30
272.3935238164444
 11
1193.31344671728
 21
2192.766192823322
 31
272.3935238164425
  0
LINE
  5
5E6
330
1F
100
AcDbEntity
  8
EMNE
100
AcDbLine
 10
1198.313446717273
 20
2202.766192823356
 30
272.3935238164462
 11
1198.31344671728
 21
2192.766192823325
 31
272.3935238164444
  0
LINE
  5
5E7
330
1F
100
AcDbEntity
  8
EMNE
100
AcDbLine
 10
1198.31344671728
 20
2192.766192823325
 30
272.3935238164444
 11
1193.31344671728
 21
2192.766192823322
 31
272.3935238164425
  0
LINE
  5
5E8
330
1F
100
AcDbEntity
  8
EMNE
100
AcDbLine
 10
2020.313446717295
 20
2202.766192822361
 30
272.3935238164444
 11
2020.313446717295
 21
2102.766192823343
 31
272.3935238164453
  0
LINE
  5
5E9
330
1F
100
AcDbEntity
  8
EMNE
100
AcDbLine
 10
2012.313446717298
 20
2202.76619282237
 30
272.3935238164453
 11
2012.313446717298
 21
2102.766192823342
 31
272.3935238164435
  0
LINE
  5
5EA
330
1F
100
AcDbEntity
  8
EMNE
100
AcDbLine
 10
2004.313446717299
 20
2202.76619282238
 30
272.3935238164453
 11
2004.313446717299
 21
2122.766192823326
 31
272.3935238164444
  0
LINE
  5
5EB
330
1F
100
AcDbEntity
  8
EMNE
100
AcDbLine
 10
2012.313446717298
 20
2202.76619282237
 30
272.3935238164435
 11
2012.313446717298
 21
2122.766192823327
 31
272.3935238164444
  0
ARC
  5
5EC
330
1F
100
AcDbEntity
  8
EMNE
100
AcDbCircle
 10
2016.313446717258
 20
2113.601041433396
 30
272.3935238164371
 40
10.0
100
AcDbArc
 50
113.5781784779737
 51
246.4218215220263
  0
LINE
  5
5ED
330
1F
100
AcDbEntity
  8
EMNE
100
AcDbLine
 10
2020.313446717299
 20
2127.766192823353
 30
272.3935238164407
 11
2020.313446717299
 21
2111.766192823352
 31
272.3935238164417
  0
LINE
  5
5EE
330
1F
100
AcDbEntity
  8
EMNE
100
AcDbLine
 10
2030.313446717299
 20
2111.766192823355
 30
272.3935238164425
 11
2030.313446717299
 21
2127.766192823356
 31
272.3935238164398
  0
LINE
  5
5EF
330
1F
100
AcDbEntity
  8
EMNE
100
AcDbLine
 10
2020.313446717295
 20
2111.766192823355
 30
272.3935238164425
 11
2030.313446717299
 21
2111.766192823355
 31
272.3935238164425
  0
ARC
  5
5F0
330
1F
100
AcDbEntity
  8
EMNE
100
AcDbCircle
 10
2016.313446717258
 20
2113.601041433396
 30
272.3935238164371
 40
10.0
100
AcDbArc
 50
293.5781784784082
 51
349.4271906997175
  0
LINE
  5
5F1
330
1F
100
AcDbEntity
  8
EMNE
100
AcDbLine
 10
2012.313446717298
 20
2102.766192823342
 30
272.3935238164453
 11
2020.313446717295
 21
2102.766192823343
 31
272.3935238164453
  0
LINE
  5
5F2
330
1F
100
AcDbEntity
  8
EMNE
100
AcDbLine
 10
2020.313446717295
 20
2150.766192823329
 30
272.3935238164435
 11
2034.313446717295
 21
2150.766192823329
 31
272.3935238164444
  0
LINE
  5
5F3
330
1F
100
AcDbEntity
  8
EMNE
100
AcDbLine
 10
2035.313446717299
 20
2149.766192823329
 30
272.3935238164444
 11
2034.313446717295
 21
2150.766192823329
 31
272.3935238164444
  0
LINE
  5
5F4
330
1F
100
AcDbEntity
  8
EMNE
100
AcDbLine
 10
2020.313446717299
 20
2127.766192823356
 30
272.3935238164435
 11
2030.313446717299
 21
2127.766192823356
 31
272.3935238164417
  0
LINE
  5
5F5
330
1F
100
AcDbEntity
  8
EMNE
100
AcDbLine
 10
2020.313446717295
 20
2140.766192823329
 30
272.3935238164444
 11
2034.313446717299
 21
2140.766192823329
 31
272.3935238164444
  0
LINE
  5
5F6
330
1F
100
AcDbEntity
  8
EMNE
100
AcDbLine
 10
2035.313446717299
 20
2141.766192823329
 30
272.3935238164453
 11
2034.313446717299
 21
2140.766192823329
 31
272.3935238164444
  0
LINE
  5
5F7
330
1F
100
AcDbEntity
  8
EMNE
100
AcDbLine
 10
1969.313446717295
 20
2122.766192823325
 30
272.3935238164444
 11
2012.313446717298
 21
2122.766192823326
 31
272.3935238164444
  0
LINE
  5
5F8
330
1F
100
AcDbEntity
  8
EMNE
100
AcDbLine
 10
2034.313446717299
 20
2150.76619282333
 30
272.3935238164435
 11
2034.313446717299
 21
2140.766192823329
 31
272.3935238164435
  0
LINE
  5
5F9
330
1F
100
AcDbEntity
  8
EMNE
100
AcDbLine
 10
2035.313446717299
 20
2149.766192823329
 30
272.3935238164444
 11
2035.313446717299
 21
2141.766192823329
 31
272.3935238164453
  0
LINE
  5
5FA
330
1F
100
AcDbEntity
  8
EMNE
100
AcDbLine
 10
1999.313446717222
 20
2202.766192823685
 30
272.3935238164466
 11
1999.313446717164
 21
2252.766192823683
 31
272.3935238164439
  0
LINE
  5
5FB
330
1F
100
AcDbEntity
  8
EMNE
100
AcDbLine
 10
1979.313446717222
 20
2202.766192823659
 30
272.3935238164457
 11
1979.313446717164
 21
2252.766192823658
 31
272.3935238164457
  0
LINE
  5
5FC
330
1F
100
AcDbEntity
  8
EMNE
100
AcDbLine
 10
2030.313446717308
 20
2192.766192823307
 30
272.3935238164435
 11
2035.313446717308
 21
2192.766192823304
 31
272.3935238164453
  0
LINE
  5
5FD
330
1F
100
AcDbEntity
  8
EMNE
100
AcDbLine
 10
2030.313446717319
 20
2202.766192822355
 30
272.3935238164435
 11
2030.313446717308
 21
2192.766192823307
 31
272.3935238164435
  0
LINE
  5
5FE
330
1F
100
AcDbEntity
  8
EMNE
100
AcDbLine
 10
2035.313446717319
 20
2202.766192822354
 30
272.3935238164462
 11
2035.313446717308
 21
2192.766192823304
 31
272.3935238164453
  0
LINE
  5
5FF
330
1F
100
AcDbEntity
  8
EMNE
100
AcDbLine
 10
1969.313446717295
 20
2337.266192822851
 30
272.3935238164486
 11
1259.313446717295
 21
2337.266192822849
 31
272.3935238164504
  0
LINE
  5
600
330
1F
100
AcDbEntity
  8
STIPLET
100
AcDbLine
 10
961.8134467172167
 20
2902.766192823649
 30
272.3935238164462
 11
961.8134467172749
 21
2952.766192823651
 31
272.3935238164471
  0
LINE
  5
601
330
1F
100
AcDbEntity
  8
STIPLET
100
AcDbLine
 10
941.8134467172167
 20
2902.766192823682
 30
272.3935238164489
 11
941.8134467172821
 21
2952.766192823677
 31
272.3935238164507
  0
LINE
  5
602
330
1F
100
AcDbEntity
  8
STIPLET
100
AcDbLine
 10
814.3134467172822
 20
2972.766192822863
 30
272.3935238164525
 11
814.3134467172822
 21
2952.766192822862
 31
272.3935238164525
  0
LINE
  5
603
330
1F
100
AcDbEntity
  8
STIPLET
100
AcDbLine
 10
1208.313446717286
 20
2902.766192823351
 30
272.393523816448
 11
1208.313446717289
 21
2802.766192823341
 31
272.3935238164489
  0
LINE
  5
604
330
1F
100
AcDbEntity
  8
STIPLET
100
AcDbLine
 10
1216.313446717286
 20
2902.766192823341
 30
272.393523816448
 11
1216.313446717286
 21
2802.766192823339
 31
272.3935238164471
  0
LINE
  5
605
330
1F
100
AcDbEntity
  8
STIPLET
100
AcDbLine
 10
1224.313446717289
 20
2902.766192823331
 30
272.393523816448
 11
1224.313446717286
 21
2822.76619282334
 31
272.3935238164471
  0
LINE
  5
606
330
1F
100
AcDbEntity
  8
STIPLET
100
AcDbLine
 10
1216.313446717289
 20
2822.766192823321
 30
272.3935238164471
 11
1216.313446717286
 21
2902.766192823341
 31
272.3935238164471
  0
LINE
  5
607
330
1F
100
AcDbEntity
  8
STIPLET
100
AcDbLine
 10
1216.313446717286
 20
2802.766192823339
 30
272.3935238164498
 11
1208.313446717289
 21
2802.766192823341
 31
272.3935238164489
  0
LINE
  5
608
330
1F
100
AcDbEntity
  8
STIPLET
100
AcDbLine
 10
1259.313446717293
 20
2822.766192823321
 30
272.3935238164471
 11
1216.313446717289
 21
2822.766192823319
 31
272.393523816448
  0
LINE
  5
609
330
1F
100
AcDbEntity
  8
STIPLET
100
AcDbLine
 10
1249.31344671722
 20
2902.766192823651
 30
272.3935238164439
 11
1249.313446717278
 21
2952.766192823652
 31
272.3935238164448
  0
LINE
  5
60A
330
1F
100
AcDbEntity
  8
STIPLET
100
AcDbLine
 10
1229.31344671722
 20
2902.766192823684
 30
272.3935238164466
 11
1229.313446717286
 21
2952.766192823678
 31
272.3935238164485
  0
LINE
  5
60B
330
1F
100
AcDbEntity
  8
STIPLET
100
AcDbLine
 10
2020.313446717293
 20
2902.766192822361
 30
272.3935238164444
 11
2020.313446717293
 21
2802.766192823344
 31
272.3935238164453
  0
LINE
  5
60C
330
1F
100
AcDbEntity
  8
STIPLET
100
AcDbLine
 10
2012.313446717297
 20
2902.76619282237
 30
272.3935238164453
 11
2012.313446717295
 21
2802.766192823341
 31
272.3935238164435
  0
LINE
  5
60D
330
1F
100
AcDbEntity
  8
STIPLET
100
AcDbLine
 10
2004.313446717297
 20
2902.76619282238
 30
272.3935238164453
 11
2004.313446717297
 21
2822.766192823326
 31
272.3935238164444
  0
LINE
  5
60E
330
1F
100
AcDbEntity
  8
STIPLET
100
AcDbLine
 10
2012.313446717297
 20
2902.76619282237
 30
272.3935238164435
 11
2012.313446717297
 21
2822.766192823327
 31
272.3935238164444
  0
LINE
  5
60F
330
1F
100
AcDbEntity
  8
STIPLET
100
AcDbLine
 10
2020.313446717295
 20
2827.766192823352
 30
272.3935238164407
 11
2020.313446717295
 21
2811.766192823352
 31
272.3935238164417
  0
LINE
  5
610
330
1F
100
AcDbEntity
  8
STIPLET
100
AcDbLine
 10
2012.313446717295
 20
2802.766192823341
 30
272.3935238164453
 11
2020.313446717293
 21
2802.766192823344
 31
272.3935238164453
  0
LINE
  5
611
330
1F
100
AcDbEntity
  8
STIPLET
100
AcDbLine
 10
1969.313446717293
 20
2822.766192823325
 30
272.3935238164444
 11
2012.313446717297
 21
2822.766192823326
 31
272.3935238164444
  0
LINE
  5
612
330
1F
100
AcDbEntity
  8
STIPLET
100
AcDbLine
 10
1999.31344671722
 20
2902.766192823685
 30
272.3935238164466
 11
1999.313446717162
 21
2952.766192823683
 31
272.3935238164439
  0
LINE
  5
613
330
1F
100
AcDbEntity
  8
STIPLET
100
AcDbLine
 10
1979.31344671722
 20
2902.766192823659
 30
272.3935238164457
 11
1979.313446717162
 21
2952.766192823658
 31
272.3935238164457
  0
LINE
  5
614
330
1F
100
AcDbEntity
  8
MIDT
100
AcDbLine
 10
2226.395552794913
 20
2852.800745702725
 30
272.3935238164472
 11
2226.395552794917
 21
2330.433952552013
 31
272.393523816448
  0
LINE
  5
615
330
1F
100
AcDbEntity
  8
EMNE
100
AcDbLine
 10
2266.813446717226
 20
2202.76619282366
 30
272.3935238164435
 11
2266.813446717168
 21
2252.766192823658
 31
272.3935238164435
  0
LINE
  5
616
330
1F
100
AcDbEntity
  8
EMNE
100
AcDbLine
 10
2286.813446717226
 20
2202.766192823685
 30
272.3935238164444
 11
2286.813446717168
 21
2252.766192823683
 31
272.3935238164417
  0
LINE
  5
617
330
1F
100
AcDbEntity
  8
EMNE
100
AcDbLine
 10
2414.313446717288
 20
2272.766192822869
 30
272.393523816448
 11
2414.313446717288
 21
2252.766192822869
 31
272.3935238164471
  0
INSERT
  5
618
330
1F
100
AcDbEntity
  8
EMNE
100
AcDbBlockReference
  2
*X4
 10
-2226.395552794898
 20
2330.433952552088
 30
-272.3935238164472
 41
19.99999999999997
 42
20.0
 43
-20.0
 50
270.1282712390458
210
0.0
220
0.0
230
-1.0
1001
ACAD
1000
HATCH
1002
{
1070
    16
1000
LINE
1040
1.0
1040
0.0
1002
}
  0
LINE
  5
619
330
1F
100
AcDbEntity
  8
EMNE
100
AcDbLine
 10
2226.395552794898
 20
2330.433952552088
 30
272.3935238164472
 11
2214.481005485979
 21
2398.759421924747
 31
272.3935238164472
  0
LINE
  5
61A
330
1F
100
AcDbEntity
  8
EMNE
100
AcDbLine
 10
2226.395552794898
 20
2330.433952552088
 30
272.3935238164472
 11
2237.931532127864
 21
2398.706921842548
 31
272.3935238164472
  0
INSERT
  5
61B
330
1F
100
AcDbEntity
  8
EMNE
100
AcDbBlockReference
  2
*X4
 10
2226.395552794902
 20
2852.800745702648
 30
272.3935238164472
 41
19.99999999999997
 42
20.0
 43
20.0
 50
90.12827123904582
1001
ACAD
1000
HATCH
1002
{
1070
    16
1000
LINE
1040
1.0
1040
0.0
1002
}
  0
LINE
  5
61C
330
1F
100
AcDbEntity
  8
EMNE
100
AcDbLine
 10
2226.395552794898
 20
2852.80074570265
 30
272.3935238164472
 11
2214.481005485977
 21
2784.47527632999
 31
272.3935238164472
  0
LINE
  5
61D
330
1F
100
AcDbEntity
  8
EMNE
100
AcDbLine
 10
2226.395552794898
 20
2852.80074570265
 30
272.3935238164472
 11
2237.931532127864
 21
2784.527776412189
 31
272.3935238164472
  0
LINE
  5
61E
330
1F
100
AcDbEntity
  8
STIPLET
100
AcDbLine
 10
2266.813446717224
 20
2902.76619282366
 30
272.3935238164435
 11
2266.813446717166
 21
2952.766192823658
 31
272.3935238164435
  0
LINE
  5
61F
330
1F
100
AcDbEntity
  8
STIPLET
100
AcDbLine
 10
2286.813446717224
 20
2902.766192823685
 30
272.3935238164444
 11
2286.813446717166
 21
2952.766192823684
 31
272.3935238164417
  0
LINE
  5
620
330
1F
100
AcDbEntity
  8
STIPLET
100
AcDbLine
 10
2414.313446717284
 20
2972.766192822869
 30
272.393523816448
 11
2414.313446717284
 21
2952.766192822869
 31
272.3935238164471
  0
LINE
  5
621
330
1F
100
AcDbEntity
  8
EMNE
100
AcDbLine
 10
1959.313446717295
 20
3117.266192822853
 30
272.3935238164486
 11
1269.313446717295
 21
3117.266192822849
 31
272.3935238164514
  0
ARC
  5
622
330
1F
100
AcDbEntity
  8
EMNE
100
AcDbCircle
 10
1269.313446717295
 20
3107.266192822843
 30
272.3935238164829
 40
10.0
100
AcDbArc
 50
90.0
 51
180.0
  0
ARC
  5
623
330
1F
100
AcDbEntity
  8
EMNE
100
AcDbCircle
 10
1959.313446717269
 20
3107.266192822853
 30
272.3935238165574
 40
10.0
100
AcDbArc
 50
0.0
 51
90.0
  0
DIMENSION
  5
624
330
1F
100
AcDbEntity
  8
MAAL
  6
Continuous
100
AcDbDimension
  2
*D18
 10
2879.238114530764
 20
2969.766192822843
 30
0.0
 11
2846.738114530764
 21
2471.266192822865
 31
0.0
 70
    32
  1
1000
 71
     5
 42
99.69999999999572
  3
ROPOX
100
AcDbAlignedDimension
 13
3000.438916253797
 23
1972.766192822885
 33
272.3935238164262
 14
3119.938916253798
 24
2969.766192822843
 34
272.3935238164426
 50
90.0
100
AcDbRotatedDimension
1001
ACAD
1000
DSTYLE
1002
{
1070
   144
1040
0.1
1002
}
  0
LINE
  5
625
330
1F
100
AcDbEntity
  8
EMNE
100
AcDbLine
 10
3000.438916253797
 20
3246.177916707784
 30
272.393523816444
 11
3000.438916253797
 21
1972.766192822885
 31
272.3935238164448
  0
DIMENSION
  5
626
330
1F
100
AcDbEntity
  8
MAAL
  6
Continuous
100
AcDbDimension
  2
*D19
 10
2739.646211126778
 20
1972.766192822885
 30
-0.0000000000006821
 11
2739.646211126777
 21
2547.266192822857
 31
-0.0000000000006821
 70
   160
  1
1140
 71
     5
 42
114.1999999999969
  3
ROPOX
100
AcDbAlignedDimension
 13
3000.438916253797
 23
3114.766192822856
 33
272.3935238164426
 14
3000.438916253797
 24
1972.766192822885
 34
272.3935238164448
 50
90.0
100
AcDbRotatedDimension
1001
ACAD
1000
DSTYLE
1002
{
1070
   144
1040
0.1
1002
}
  0
LINE
  5
627
330
1F
100
AcDbEntity
  8
EMNE
100
AcDbLine
 10
3139.938916253794
 20
1992.766192822849
 30
272.3935238164473
 11
3139.938916253794
 21
2104.76619282284
 31
272.3935238164471
  0
LINE
  5
628
330
1F
100
AcDbEntity
  8
EMNE
100
AcDbLine
 10
3000.438916253794
 20
2089.766192822855
 30
272.3935238164468
 11
3000.438916253794
 21
2039.766192822856
 31
272.3935238164462
  0
LINE
  5
629
330
1F
100
AcDbEntity
  8
EMNE
100
AcDbLine
 10
3003.438916253794
 20
2089.766192822855
 30
272.3935238164468
 11
3003.438916253794
 21
2042.766192822856
 31
272.3935238164467
  0
LINE
  5
62A
330
1F
100
AcDbEntity
  8
EMNE
100
AcDbLine
 10
3023.93891625379
 20
1992.766192822846
 30
272.3935238164453
 11
3023.93891625379
 21
2124.766192822856
 31
272.3935238164459
  0
LINE
  5
62B
330
1F
100
AcDbEntity
  8
EMNE
100
AcDbLine
 10
3010.438916253797
 20
2319.766192822853
 30
272.3935238164452
 11
3010.43891625379
 21
2049.766192822855
 31
272.3935238164447
  0
LINE
  5
62C
330
1F
100
AcDbEntity
  8
EMNE
100
AcDbLine
 10
3000.438916253797
 20
1972.766192822885
 30
272.3935238164262
 11
3916.264347785984
 21
1972.766192822874
 31
272.393523816442
  0
LINE
  5
62D
330
1F
100
AcDbEntity
  8
MAAL
100
AcDbLine
 10
3621.263012640159
 20
1946.334213494481
 30
272.3935238164222
 11
3640.438916253798
 21
1972.76619282289
 31
272.3935238164222
  0
LINE
  5
62E
330
1F
100
AcDbEntity
  8
MAAL
100
AcDbLine
 10
3101.263012640162
 20
1946.334213494482
 30
272.3935238164238
 11
3120.438916253801
 21
1972.766192822889
 31
272.393523816423
  0
LINE
  5
62F
330
1F
100
AcDbEntity
  8
MAAL
100
AcDbLine
 10
3141.263012640162
 20
1946.334213494482
 30
272.393523816423
 11
3160.438916253801
 21
1972.766192822889
 31
272.3935238164238
  0
LINE
  5
630
330
1F
100
AcDbEntity
  8
MAAL
100
AcDbLine
 10
3061.263012640162
 20
1946.334213494482
 30
272.3935238164238
 11
3080.438916253801
 21
1972.766192822889
 31
272.3935238164238
  0
LINE
  5
631
330
1F
100
AcDbEntity
  8
MAAL
100
AcDbLine
 10
3021.263012640162
 20
1946.334213494484
 30
272.3935238164238
 11
3040.438916253801
 21
1972.766192822891
 31
272.3935238164238
  0
LINE
  5
632
330
1F
100
AcDbEntity
  8
EMNE
100
AcDbLine
 10
3015.438916253794
 20
2039.766192822851
 30
272.3935238164443
 11
3015.438916253794
 21
1999.766192822856
 31
272.3935238164444
  0
LINE
  5
633
330
1F
100
AcDbEntity
  8
EMNE
100
AcDbLine
 10
3139.938916253794
 20
1992.766192822846
 30
272.3935238164475
 11
3023.93891625379
 21
1992.766192822847
 31
272.3935238164457
  0
LINE
  5
634
330
1F
100
AcDbEntity
  8
EMNE
100
AcDbLine
 10
3015.438916253794
 20
1999.766192822856
 30
272.3935238164448
 11
3023.93891625379
 21
1999.766192822856
 31
272.3935238164463
  0
LINE
  5
635
330
1F
100
AcDbEntity
  8
EMNE
100
AcDbLine
 10
3015.438916253794
 20
2049.766192822854
 30
272.3935238164443
 11
3015.438916253794
 21
2042.766192822856
 31
272.3935238164443
  0
LINE
  5
636
330
1F
100
AcDbEntity
  8
EMNE
100
AcDbLine
 10
3015.438916253794
 20
2039.766192822856
 30
272.393523816446
 11
3023.93891625379
 21
2039.766192822856
 31
272.3935238164447
  0
LINE
  5
637
330
1F
100
AcDbEntity
  8
EMNE
100
AcDbLine
 10
3023.93891625379
 20
2049.766192822854
 30
272.3935238164445
 11
3010.438916253794
 21
2049.766192822854
 31
272.3935238164466
  0
LINE
  5
638
330
1F
100
AcDbEntity
  8
MAAL
100
AcDbLine
 10
2974.006936925396
 20
2040.590289209221
 30
272.3935238164425
 11
3000.438916253805
 21
2059.76619282286
 31
272.3935238164425
  0
LINE
  5
639
330
1F
100
AcDbEntity
  8
EMNE
100
AcDbLine
 10
3000.438916253797
 20
2039.766192822852
 30
272.3935238164472
 11
3023.93891625379
 21
2039.766192822852
 31
272.3935238164468
  0
LINE
  5
63A
330
1F
100
AcDbEntity
  8
EMNE
100
AcDbLine
 10
3023.93891625379
 20
2042.766192822856
 30
272.3935238164472
 11
3003.438916253794
 21
2042.766192822856
 31
272.3935238164467
  0
LINE
  5
63B
330
1F
100
AcDbEntity
  8
MAAL
100
AcDbLine
 10
3581.263012640158
 20
1946.334213494483
 30
272.3935238164222
 11
3600.438916253798
 21
1972.766192822888
 31
272.3935238164222
  0
LINE
  5
63C
330
1F
100
AcDbEntity
  8
MAAL
100
AcDbLine
 10
3541.263012640158
 20
1946.334213494481
 30
272.3935238164222
 11
3560.438916253798
 21
1972.766192822888
 31
272.3935238164222
  0
LINE
  5
63D
330
1F
100
AcDbEntity
  8
MAAL
100
AcDbLine
 10
3421.263012640159
 20
1946.334213494481
 30
272.3935238164222
 11
3440.438916253798
 21
1972.766192822888
 31
272.393523816423
  0
LINE
  5
63E
330
1F
100
AcDbEntity
  8
MAAL
100
AcDbLine
 10
3461.263012640158
 20
1946.334213494481
 30
272.3935238164212
 11
3480.438916253798
 21
1972.766192822888
 31
272.3935238164222
  0
LINE
  5
63F
330
1F
100
AcDbEntity
  8
MAAL
100
AcDbLine
 10
3501.263012640158
 20
1946.334213494481
 30
272.3935238164212
 11
3520.438916253797
 21
1972.766192822888
 31
272.3935238164222
  0
LINE
  5
640
330
1F
100
AcDbEntity
  8
MAAL
100
AcDbLine
 10
3301.263012640158
 20
1946.334213494481
 30
272.3935238164222
 11
3320.438916253797
 21
1972.766192822888
 31
272.393523816423
  0
LINE
  5
641
330
1F
100
AcDbEntity
  8
MAAL
100
AcDbLine
 10
3341.263012640158
 20
1946.334213494481
 30
272.3935238164222
 11
3360.438916253797
 21
1972.766192822888
 31
272.393523816423
  0
LINE
  5
642
330
1F
100
AcDbEntity
  8
MAAL
100
AcDbLine
 10
3181.263012640159
 20
1946.334213494483
 30
272.393523816423
 11
3200.438916253798
 21
1972.766192822888
 31
272.393523816424
  0
LINE
  5
643
330
1F
100
AcDbEntity
  8
MAAL
100
AcDbLine
 10
3221.263012640159
 20
1946.334213494481
 30
272.393523816423
 11
3240.438916253797
 21
1972.766192822888
 31
272.393523816424
  0
LINE
  5
644
330
1F
100
AcDbEntity
  8
MAAL
100
AcDbLine
 10
3261.263012640159
 20
1946.334213494481
 30
272.393523816423
 11
3280.438916253797
 21
1972.766192822886
 31
272.393523816423
  0
LINE
  5
645
330
1F
100
AcDbEntity
  8
MAAL
100
AcDbLine
 10
3261.263012640159
 20
1946.334213494481
 30
272.3935238164222
 11
3280.438916253797
 21
1972.766192822888
 31
272.3935238164222
  0
LINE
  5
646
330
1F
100
AcDbEntity
  8
MAAL
100
AcDbLine
 10
3381.263012640158
 20
1946.334213494481
 30
272.3935238164222
 11
3400.438916253798
 21
1972.766192822888
 31
272.393523816424
  0
LINE
  5
647
330
1F
100
AcDbEntity
  8
MAAL
100
AcDbLine
 10
3781.263012640158
 20
1946.334213494483
 30
272.3935238164212
 11
3800.438916253798
 21
1972.76619282289
 31
272.3935238164212
  0
LINE
  5
648
330
1F
100
AcDbEntity
  8
MAAL
100
AcDbLine
 10
3821.263012640159
 20
1946.334213494483
 30
272.3935238164212
 11
3840.438916253797
 21
1972.76619282289
 31
272.3935238164212
  0
LINE
  5
649
330
1F
100
AcDbEntity
  8
MAAL
100
AcDbLine
 10
3781.263012640158
 20
1946.334213494483
 30
272.3935238164212
 11
3800.438916253798
 21
1972.76619282289
 31
272.3935238164212
  0
LINE
  5
64A
330
1F
100
AcDbEntity
  8
MAAL
100
AcDbLine
 10
3701.263012640158
 20
1946.334213494483
 30
272.3935238164212
 11
3720.438916253797
 21
1972.76619282289
 31
272.3935238164212
  0
LINE
  5
64B
330
1F
100
AcDbEntity
  8
MAAL
100
AcDbLine
 10
3661.263012640159
 20
1946.334213494483
 30
272.3935238164222
 11
3680.438916253797
 21
1972.76619282289
 31
272.3935238164212
  0
LINE
  5
64C
330
1F
100
AcDbEntity
  8
MAAL
100
AcDbLine
 10
3741.263012640158
 20
1946.334213494483
 30
272.3935238164212
 11
3760.438916253798
 21
1972.76619282289
 31
272.3935238164212
  0
DIMENSION
  5
64D
330
1F
100
AcDbEntity
  8
MAAL
  6
Continuous
100
AcDbDimension
  2
*D20
 10
3189.938916253801
 20
3324.74831378844
 30
-0.0000000000006821
 11
3095.188916253799
 21
3357.248313788439
 31
-0.0000000000006821
 70
    32
  1
200
 71
     5
 42
18.95000000000036
  3
ROPOX
100
AcDbAlignedDimension
 13
3000.438916253797
 23
3246.177916707784
 33
272.393523816444
 14
3189.938916253801
 24
2864.766192822841
 34
272.3935238164442
100
AcDbRotatedDimension
1001
ACAD
1000
DSTYLE
1002
{
1070
   144
1040
0.1
1002
}
  0
DIMENSION
  5
64E
330
1F
100
AcDbEntity
  8
MAAL
  6
Continuous
100
AcDbDimension
  2
*D21
 10
3090.438916253801
 20
3194.689671377599
 30
-0.0000000000006821
 11
3177.938916253801
 21
3227.189671377599
 31
-0.0000000000006821
 70
    32
  1
100
 71
     5
 42
9.000000000000364
  3
ROPOX
100
AcDbAlignedDimension
 13
3000.438916253797
 23
3246.177916707784
 33
272.393523816444
 14
3090.438916253801
 24
3107.266192822858
 34
272.3935238164316
100
AcDbRotatedDimension
1001
ACAD
1000
DSTYLE
1002
{
1070
   144
1040
0.1
1002
}
  0
ARC
  5
64F
330
1F
100
AcDbEntity
  8
MIDT
100
AcDbCircle
 10
3152.938916253801
 20
2242.266192822847
 30
272.393523816456
 40
728.7250853373908
100
AcDbArc
 50
6.435349412660643
 51
82.63644412103362
  0
LINE
  5
650
330
1F
100
AcDbEntity
  8
EMNE
100
AcDbLine
 10
3090.438916253794
 20
2337.266192822856
 30
272.393523816446
 11
3090.438916253797
 21
3107.266192822859
 31
272.3935238164446
  0
LINE
  5
651
330
1F
100
AcDbEntity
  8
EMNE
100
AcDbLine
 10
3015.438916253805
 20
3094.766192822858
 30
272.3935238164428
 11
3015.438916253794
 21
2319.766192822853
 31
272.3935238164439
  0
LINE
  5
652
330
1F
100
AcDbEntity
  8
EMNE
100
AcDbLine
 10
3025.438916253794
 20
2337.266192822857
 30
272.3935238164465
 11
3025.438916253794
 21
3114.766192822859
 31
272.3935238164425
  0
LINE
  5
653
330
1F
100
AcDbEntity
  8
EMNE
100
AcDbLine
 10
3880.938916253794
 20
2254.766192822857
 30
272.3935238164433
 11
3180.938916253794
 21
2254.766192822858
 31
272.3935238164433
  0
LINE
  5
654
330
1F
100
AcDbEntity
  8
EMNE
100
AcDbLine
 10
3880.938916253794
 20
2274.76619282286
 30
272.3935238164433
 11
3180.938916253794
 21
2274.76619282286
 31
272.3935238164448
  0
LINE
  5
655
330
1F
100
AcDbEntity
  8
EMNE
100
AcDbLine
 10
3775.938916253794
 20
2204.766192822853
 30
272.3935238164443
 11
3175.438916253805
 21
2204.766192822855
 31
272.3935238164453
  0
LINE
  5
656
330
1F
100
AcDbEntity
  8
EMNE
100
AcDbLine
 10
3775.938916253794
 20
2254.766192822853
 30
272.3935238164436
 11
3171.647203187664
 21
2254.766192822854
 31
272.3935238164441
  0
LINE
  5
657
330
1F
100
AcDbEntity
  8
STIPLET
100
AcDbLine
 10
3139.938916253801
 20
2969.766192822843
 30
272.393523816444
 11
3139.938916253801
 21
2264.766192822856
 31
272.3935238164447
  0
LINE
  5
658
330
1F
100
AcDbEntity
  8
STIPLET
100
AcDbLine
 10
3189.938916253801
 20
2864.766192822841
 30
272.3935238164442
 11
3189.938916253801
 21
2184.766192822857
 31
272.393523816446
  0
LINE
  5
659
330
1F
100
AcDbEntity
  8
STIPLET
100
AcDbLine
 10
3119.938916253798
 20
2969.766192822843
 30
272.3935238164426
 11
3119.938916253798
 21
2269.766192822841
 31
272.3935238164466
  0
LINE
  5
65A
330
1F
100
AcDbEntity
  8
MAAL
100
AcDbLine
 10
2974.006936925396
 20
2520.59028920922
 30
272.3935238164408
 11
3000.438916253801
 21
2539.766192822859
 31
272.3935238164408
  0
LINE
  5
65B
330
1F
100
AcDbEntity
  8
MAAL
100
AcDbLine
 10
2974.006936925396
 20
2280.59028920922
 30
272.3935238164408
 11
3000.438916253801
 21
2299.766192822858
 31
272.3935238164417
  0
LINE
  5
65C
330
1F
100
AcDbEntity
  8
EMNE
100
AcDbLine
 10
3106.624153022598
 20
2272.766192822857
 30
272.3935238164455
 11
3087.938916253794
 21
2337.266192822862
 31
272.3935238164447
  0
LINE
  5
65D
330
1F
100
AcDbEntity
  8
EMNE
100
AcDbLine
 10
3023.93891625379
 20
2244.766192822856
 30
272.3935238164464
 11
3023.938916253794
 21
2357.266192822856
 31
272.3935238164469
  0
LINE
  5
65E
330
1F
100
AcDbEntity
  8
STIPLET
100
AcDbLine
 10
3139.938916253805
 20
2269.766192822843
 30
272.3935238164456
 11
3189.938916253808
 21
2269.766192822842
 31
272.3935238164471
  0
ARC
  5
65F
330
1F
100
AcDbEntity
  8
EMNE
100
AcDbCircle
 10
3152.938916253801
 20
2242.266192822847
 30
272.393523816456
 40
22.5
100
AcDbArc
 50
0.0
 51
90.0
  0
CIRCLE
  5
660
330
1F
100
AcDbEntity
  8
EMNE
100
AcDbCircle
 10
3152.938916253801
 20
2241.766192822847
 30
272.3935238164567
 40
12.5
  0
CIRCLE
  5
661
330
1F
100
AcDbEntity
  8
EMNE
100
AcDbCircle
 10
3152.938916253797
 20
2241.76619282285
 30
272.3935238164559
 40
12.5
  0
LINE
  5
662
330
1F
100
AcDbEntity
  8
EMNE
100
AcDbLine
 10
3175.438916253801
 20
2134.76619282284
 30
272.3935238164562
 11
3145.438916253801
 21
2104.76619282284
 31
272.3935238164481
  0
LINE
  5
663
330
1F
100
AcDbEntity
  8
MAAL
100
AcDbLine
 10
2974.006936925396
 20
2160.59028920922
 30
272.3935238164417
 11
3000.438916253801
 21
2179.766192822858
 31
272.3935238164426
  0
LINE
  5
664
330
1F
100
AcDbEntity
  8
EMNE
100
AcDbLine
 10
3040.438916253794
 20
2272.766192822853
 30
272.3935238164465
 11
3040.438916253798
 21
2104.76619282284
 31
272.3935238164468
  0
LINE
  5
665
330
1F
100
AcDbEntity
  8
MAAL
100
AcDbLine
 10
2974.006936925396
 20
2120.590289209221
 30
272.3935238164416
 11
3000.438916253805
 21
2139.766192822861
 31
272.3935238164425
  0
LINE
  5
666
330
1F
100
AcDbEntity
  8
EMNE
100
AcDbLine
 10
3145.438916253801
 20
2104.76619282284
 30
272.3935238164481
 11
3040.438916253798
 21
2104.76619282284
 31
272.3935238164453
  0
LINE
  5
667
330
1F
100
AcDbEntity
  8
MAAL
100
AcDbLine
 10
2974.006936925396
 20
2080.590289209221
 30
272.3935238164425
 11
3000.438916253805
 21
2099.766192822861
 31
272.3935238164416
  0
LINE
  5
668
330
1F
100
AcDbEntity
  8
EMNE
100
AcDbLine
 10
3003.438916253794
 20
2089.766192822855
 30
272.3935238164468
 11
3000.43891625379
 21
2089.766192822856
 31
272.3935238164453
  0
LINE
  5
669
330
1F
100
AcDbEntity
  8
MIDT
100
AcDbLine
 10
3013.43891625379
 20
2069.766192822855
 30
272.393523816447
 11
2990.438916253794
 21
2069.766192822856
 31
272.3935238164447
  0
LINE
  5
66A
330
1F
100
AcDbEntity
  8
EMNE
100
AcDbLine
 10
3010.438916253794
 20
2124.766192822857
 30
272.3935238164454
 11
3040.438916253798
 21
2124.766192822857
 31
272.3935238164442
  0
CIRCLE
  5
66B
330
1F
100
AcDbEntity
  8
EMNE
100
AcDbCircle
 10
3152.938916253801
 20
2241.766192822846
 30
272.3935238164567
 40
8.0
  0
LINE
  5
66C
330
1F
100
AcDbEntity
  8
MAAL
100
AcDbLine
 10
2974.006936925396
 20
2200.59028920922
 30
272.3935238164417
 11
3000.438916253801
 21
2219.766192822859
 31
272.3935238164426
  0
LINE
  5
66D
330
1F
100
AcDbEntity
  8
EMNE
100
AcDbLine
 10
3115.438916253797
 20
2272.766192822857
 30
272.3935238164467
 11
3040.438916253794
 21
2272.766192822853
 31
272.3935238164465
  0
LINE
  5
66E
330
1F
100
AcDbEntity
  8
EMNE
100
AcDbLine
 10
3140.438916253798
 20
2264.766192822856
 30
272.3935238164447
 11
3040.438916253798
 21
2264.766192822854
 31
272.3935238164464
  0
LINE
  5
66F
330
1F
100
AcDbEntity
  8
EMNE
100
AcDbLine
 10
3010.438916253794
 20
2244.766192822854
 30
272.3935238164438
 11
3040.438916253794
 21
2244.766192822854
 31
272.3935238164444
  0
LINE
  5
670
330
1F
100
AcDbEntity
  8
MAAL
100
AcDbLine
 10
2974.006936925396
 20
2240.59028920922
 30
272.3935238164417
 11
3000.438916253801
 21
2259.766192822858
 31
272.3935238164417
  0
LINE
  5
671
330
1F
100
AcDbEntity
  8
MAAL
100
AcDbLine
 10
2974.006936925396
 20
2240.59028920922
 30
272.3935238164408
 11
3000.438916253801
 21
2259.766192822858
 31
272.3935238164408
  0
LINE
  5
672
330
1F
100
AcDbEntity
  8
EMNE
100
AcDbLine
 10
3140.438916253798
 20
2264.766192822857
 30
272.3935238164451
 11
3152.938916253797
 21
2264.766192822857
 31
272.3935238164451
  0
LINE
  5
673
330
1F
100
AcDbEntity
  8
EMNE
100
AcDbLine
 10
3115.438916253797
 20
2272.766192822855
 30
272.3935238164462
 11
3115.438916253797
 21
2264.766192822854
 31
272.3935238164454
  0
LINE
  5
674
330
1F
100
AcDbEntity
  8
STIPLET
100
AcDbLine
 10
3139.938916253798
 20
2269.766192822843
 30
272.3935238164445
 11
3119.938916253798
 21
2269.766192822842
 31
272.3935238164469
  0
LINE
  5
675
330
1F
100
AcDbEntity
  8
EMNE
100
AcDbLine
 10
3193.838329000128
 20
2184.766192822858
 30
272.3935238164458
 11
3193.838329000128
 21
2144.76619282286
 31
272.3935238164443
  0
LINE
  5
676
330
1F
100
AcDbEntity
  8
EMNE
100
AcDbLine
 10
3175.438916253801
 20
2242.266192822847
 30
272.3935238164559
 11
3175.438916253801
 21
2134.76619282284
 31
272.3935238164562
  0
LINE
  5
677
330
1F
100
AcDbEntity
  8
EMNE
100
AcDbLine
 10
3193.838329000128
 20
2144.76619282286
 30
272.3935238164443
 11
3175.438916253801
 21
2144.76619282286
 31
272.3935238164443
  0
LINE
  5
678
330
1F
100
AcDbEntity
  8
EMNE
100
AcDbLine
 10
3180.938916253797
 20
2254.766192822852
 30
272.393523816446
 11
3180.938916253797
 21
2204.766192822853
 31
272.3935238164466
  0
LINE
  5
679
330
1F
100
AcDbEntity
  8
EMNE
100
AcDbLine
 10
3193.838329000128
 20
2184.766192822858
 30
272.3935238164458
 11
3175.438916253805
 21
2184.766192822859
 31
272.3935238164449
  0
LINE
  5
67A
330
1F
100
AcDbEntity
  8
EMNE
100
AcDbLine
 10
3180.938916253794
 20
2254.766192822858
 30
272.3935238164433
 11
3180.938916253794
 21
2274.766192822859
 31
272.3935238164458
  0
LINE
  5
67B
330
1F
100
AcDbEntity
  8
STIPLET
100
AcDbLine
 10
3139.938916253801
 20
2319.766192822843
 30
272.3935238164454
 11
3189.938916253801
 21
2319.766192822843
 31
272.3935238164469
  0
LINE
  5
67C
330
1F
100
AcDbEntity
  8
MAAL
100
AcDbLine
 10
2974.006936925396
 20
2400.590289209219
 30
272.3935238164408
 11
3000.438916253801
 21
2419.766192822859
 31
272.3935238164417
  0
LINE
  5
67D
330
1F
100
AcDbEntity
  8
EMNE
100
AcDbLine
 10
3025.438916253794
 20
2337.266192822859
 30
272.3935238164468
 11
3090.43891625379
 21
2337.266192822858
 31
272.3935238164445
  0
LINE
  5
67E
330
1F
100
AcDbEntity
  8
EMNE
100
AcDbLine
 10
3010.438916253797
 20
2319.766192822853
 30
272.3935238164438
 11
3023.938916253794
 21
2319.766192822853
 31
272.393523816444
  0
LINE
  5
67F
330
1F
100
AcDbEntity
  8
MAAL
100
AcDbLine
 10
2974.006936925396
 20
2320.590289209219
 30
272.3935238164408
 11
3000.438916253801
 21
2339.766192822859
 31
272.3935238164417
  0
LINE
  5
680
330
1F
100
AcDbEntity
  8
MAAL
100
AcDbLine
 10
2974.006936925396
 20
2360.59028920922
 30
272.3935238164408
 11
3000.438916253801
 21
2379.766192822859
 31
272.3935238164426
  0
LINE
  5
681
330
1F
100
AcDbEntity
  8
EMNE
100
AcDbLine
 10
3023.938916253794
 20
2357.266192822856
 30
272.3935238164469
 11
3025.438916253794
 21
2357.266192822856
 31
272.3935238164469
  0
LINE
  5
682
330
1F
100
AcDbEntity
  8
MAAL
100
AcDbLine
 10
2974.006936925396
 20
2440.59028920922
 30
272.3935238164399
 11
3000.438916253801
 21
2459.766192822857
 31
272.3935238164408
  0
LINE
  5
683
330
1F
100
AcDbEntity
  8
MAAL
100
AcDbLine
 10
2974.006936925396
 20
2480.590289209219
 30
272.3935238164399
 11
3000.438916253801
 21
2499.766192822859
 31
272.3935238164408
  0
LINE
  5
684
330
1F
100
AcDbEntity
  8
MAAL
100
AcDbLine
 10
2974.006936925396
 20
2640.590289209219
 30
272.3935238164408
 11
3000.438916253805
 21
2659.766192822858
 31
272.3935238164399
  0
LINE
  5
685
330
1F
100
AcDbEntity
  8
MAAL
100
AcDbLine
 10
2974.006936925396
 20
2560.59028920922
 30
272.3935238164408
 11
3000.438916253801
 21
2579.766192822859
 31
272.3935238164408
  0
LINE
  5
686
330
1F
100
AcDbEntity
  8
MAAL
100
AcDbLine
 10
2974.006936925396
 20
2600.59028920922
 30
272.3935238164408
 11
3000.438916253805
 21
2619.766192822859
 31
272.3935238164408
  0
LINE
  5
687
330
1F
100
AcDbEntity
  8
MAAL
100
AcDbLine
 10
2974.006936925396
 20
2680.590289209219
 30
272.3935238164399
 11
3000.438916253805
 21
2699.766192822858
 31
272.3935238164399
  0
LINE
  5
688
330
1F
100
AcDbEntity
  8
MAAL
100
AcDbLine
 10
2974.006936925396
 20
2720.590289209219
 30
272.3935238164399
 11
3000.438916253805
 21
2739.766192822858
 31
272.3935238164399
  0
LINE
  5
689
330
1F
100
AcDbEntity
  8
STIPLET
100
AcDbLine
 10
3139.938916253801
 20
2864.766192822841
 30
272.393523816445
 11
3189.938916253801
 21
2864.766192822841
 31
272.393523816446
  0
LINE
  5
68A
330
1F
100
AcDbEntity
  8
MAAL
100
AcDbLine
 10
2974.006936925396
 20
2800.590289209219
 30
272.3935238164399
 11
3000.438916253805
 21
2819.766192822858
 31
272.3935238164399
  0
LINE
  5
68B
330
1F
100
AcDbEntity
  8
MAAL
100
AcDbLine
 10
2974.006936925396
 20
2760.590289209219
 30
272.3935238164399
 11
3000.438916253805
 21
2779.766192822858
 31
272.3935238164399
  0
LINE
  5
68C
330
1F
100
AcDbEntity
  8
MAAL
100
AcDbLine
 10
2974.006936925396
 20
2840.590289209219
 30
272.3935238164399
 11
3000.438916253805
 21
2859.766192822858
 31
272.3935238164399
  0
LINE
  5
68D
330
1F
100
AcDbEntity
  8
MAAL
100
AcDbLine
 10
2974.006936925396
 20
2920.590289209219
 30
272.3935238164399
 11
3000.438916253805
 21
2939.766192822859
 31
272.3935238164399
  0
LINE
  5
68E
330
1F
100
AcDbEntity
  8
MAAL
100
AcDbLine
 10
2974.006936925396
 20
2880.590289209219
 30
272.3935238164399
 11
3000.438916253805
 21
2899.766192822858
 31
272.3935238164399
  0
LINE
  5
68F
330
1F
100
AcDbEntity
  8
STIPLET
100
AcDbLine
 10
3139.938916253801
 20
2969.766192822843
 30
272.3935238164431
 11
3119.938916253798
 21
2969.766192822843
 31
272.3935238164444
  0
INSERT
  5
690
330
1F
100
AcDbEntity
  8
EMNE
100
AcDbBlockReference
  2
*X4
 10
3246.335819893151
 20
2964.981398412551
 30
272.393523816456
 41
19.99999999999998
 42
20.0
 43
20.0
 50
171.300681556786
1001
ACAD
1000
HATCH
1002
{
1070
    16
1000
LINE
1040
1.0
1040
0.0
1002
}
  0
LINE
  5
691
330
1F
100
AcDbEntity
  8
EMNE
100
AcDbLine
 10
3246.33581989314
 20
2964.981398412551
 30
272.393523816456
 11
3312.023520258323
 21
2942.722642308367
 31
272.393523816456
  0
LINE
  5
692
330
1F
100
AcDbEntity
  8
EMNE
100
AcDbLine
 10
3246.33581989314
 20
2964.981398412551
 30
272.393523816456
 11
3315.570399297716
 21
2965.9034448208
 31
272.393523816456
  0
LINE
  5
693
330
1F
100
AcDbEntity
  8
EMNE
100
AcDbLine
 10
3775.938916253794
 20
2254.766192822854
 30
272.3935238164453
 11
3775.938916253794
 21
2204.766192822853
 31
272.3935238164443
  0
LINE
  5
694
330
1F
100
AcDbEntity
  8
EMNE
100
AcDbLine
 10
3880.938916253794
 20
2254.766192822857
 30
272.3935238164445
 11
3880.938916253794
 21
2274.766192822861
 31
272.3935238164436
  0
INSERT
  5
695
330
1F
100
AcDbEntity
  8
EMNE
100
AcDbBlockReference
  2
*X4
 10
3877.072274040494
 20
2323.943179425896
 30
272.393523816456
 41
19.99999999999998
 42
20.0
 43
20.0
 50
279.8212877298446
1001
ACAD
1000
HATCH
1002
{
1070
    16
1000
LINE
1040
1.0
1040
0.0
1002
}
  0
LINE
  5
696
330
1F
100
AcDbEntity
  8
EMNE
100
AcDbLine
 10
3877.072274040494
 20
2323.943179425896
 30
272.393523816456
 11
3854.205914717017
 21
2389.29917965691
 31
272.393523816456
  0
LINE
  5
697
330
1F
100
AcDbEntity
  8
EMNE
100
AcDbLine
 10
3877.072274040494
 20
2323.943179425896
 30
272.393523816456
 11
3877.312822198086
 21
2393.299277493438
 31
272.393523816456
  0
LINE
  5
698
330
1F
100
AcDbEntity
  8
EMNE
100
AcDbLine
 10
3010.438916253797
 20
3114.766192822858
 30
272.3935238164417
 11
3010.438916253797
 21
3064.766192822856
 31
272.3935238164423
  0
LINE
  5
699
330
1F
100
AcDbEntity
  8
EMNE
100
AcDbLine
 10
3000.438916253797
 20
3114.766192822856
 30
272.3935238164426
 11
3000.438916253797
 21
3064.766192822856
 31
272.3935238164417
  0
LINE
  5
69A
330
1F
100
AcDbEntity
  8
MAAL
100
AcDbLine
 10
2974.006936925396
 20
3040.590289209219
 30
272.3935238164399
 11
3000.438916253805
 21
3059.766192822858
 31
272.3935238164399
  0
LINE
  5
69B
330
1F
100
AcDbEntity
  8
MAAL
100
AcDbLine
 10
2974.006936925396
 20
3000.590289209219
 30
272.3935238164399
 11
3000.438916253805
 21
3019.766192822858
 31
272.3935238164399
  0
LINE
  5
69C
330
1F
100
AcDbEntity
  8
EMNE
100
AcDbLine
 10
3010.438916253801
 20
3094.766192822858
 30
272.3935238164413
 11
3025.438916253798
 21
3094.766192822858
 31
272.3935238164413
  0
LINE
  5
69D
330
1F
100
AcDbEntity
  8
MAAL
100
AcDbLine
 10
2974.006936925396
 20
3080.590289209219
 30
272.3935238164399
 11
3000.438916253805
 21
3099.766192822858
 31
272.3935238164399
  0
LINE
  5
69E
330
1F
100
AcDbEntity
  8
MIDT
100
AcDbLine
 10
2995.310782020586
 20
3074.766192822856
 30
272.3935238164407
 11
3025.310782020586
 21
3074.766192822858
 31
272.3935238164408
  0
LINE
  5
69F
330
1F
100
AcDbEntity
  8
EMNE
100
AcDbLine
 10
3000.438916253797
 20
3064.766192822856
 30
272.3935238164417
 11
3010.438916253797
 21
3064.766192822856
 31
272.3935238164423
  0
LINE
  5
6A0
330
1F
100
AcDbEntity
  8
MAAL
100
AcDbLine
 10
2974.006936925396
 20
3160.590289209219
 30
272.3935238164399
 11
3000.438916253805
 21
3179.766192822858
 31
272.3935238164399
  0
LINE
  5
6A1
330
1F
100
AcDbEntity
  8
EMNE
100
AcDbLine
 10
3010.438916253797
 20
3117.266192822859
 30
272.393523816444
 11
3080.438916253797
 21
3117.266192822859
 31
272.3935238164435
  0
LINE
  5
6A2
330
1F
100
AcDbEntity
  8
EMNE
100
AcDbLine
 10
3010.438916253797
 20
3114.766192822859
 30
272.3935238164429
 11
3010.438916253797
 21
3117.266192822859
 31
272.393523816444
  0
LINE
  5
6A3
330
1F
100
AcDbEntity
  8
EMNE
100
AcDbLine
 10
3025.438916253798
 20
3114.766192822859
 30
272.3935238164431
 11
3015.438916253798
 21
3114.766192822858
 31
272.3935238164435
  0
LINE
  5
6A4
330
1F
100
AcDbEntity
  8
EMNE
100
AcDbLine
 10
3000.438916253797
 20
3114.766192822856
 30
272.3935238164426
 11
3025.438916253798
 21
3114.766192822856
 31
272.3935238164425
  0
ARC
  5
6A5
330
1F
100
AcDbEntity
  8
EMNE
100
AcDbCircle
 10
3080.438916253801
 20
3107.266192822858
 30
272.3935238164316
 40
10.0
100
AcDbArc
 50
0.0
 51
90.0
  0
LINE
  5
6A6
330
1F
100
AcDbEntity
  8
MAAL
100
AcDbLine
 10
2974.006936925396
 20
3200.590289209219
 30
272.3935238164399
 11
3000.438916253805
 21
3219.766192822858
 31
272.3935238164399
  0
LINE
  5
6A8
330
1F
100
AcDbEntity
  8
MAAL
100
AcDbLine
 10
2203.317564706349
 20
1696.424949925704
 30
272.3935238164028
 11
2222.493468319988
 21
1669.992970597298
 31
272.3935238164019
  0
LINE
  5
6A9
330
1F
100
AcDbEntity
  8
MAAL
100
AcDbLine
 10
2243.317564706349
 20
1696.424949925704
 30
272.3935238164028
 11
2262.493468319988
 21
1669.992970597299
 31
272.3935238164019
  0
LINE
  5
6AA
330
1F
100
AcDbEntity
  8
MAAL
100
AcDbLine
 10
2243.317564706349
 20
1946.334213494461
 30
272.3935238164478
 11
2262.493468319988
 21
1972.766192822868
 31
272.3935238164469
  0
LINE
  5
6AB
330
1F
100
AcDbEntity
  8
MAAL
100
AcDbLine
 10
2203.317564706349
 20
1946.334213494461
 30
272.3935238164478
 11
2222.493468319988
 21
1972.766192822868
 31
272.3935238164469
  0
LINE
  5
6AC
330
1F
100
AcDbEntity
  8
MAAL
100
AcDbLine
 10
1003.317564706351
 20
1946.334213494459
 30
272.3935238164511
 11
1022.49346831999
 21
1972.766192822864
 31
272.393523816452
  0
LINE
  5
6AD
330
1F
100
AcDbEntity
  8
MAAL
100
AcDbLine
 10
963.3175647063508
 20
1946.334213494459
 30
272.3935238164512
 11
982.4934683199899
 21
1972.766192822864
 31
272.3935238164521
  0
LINE
  5
6AE
330
1F
100
AcDbEntity
  8
MAAL
100
AcDbLine
 10
1003.317564706349
 20
1696.424949925694
 30
272.393523816406
 11
1022.49346831999
 21
1669.992970597289
 31
272.393523816407
  0
LINE
  5
6AF
330
1F
100
AcDbEntity
  8
MAAL
100
AcDbLine
 10
963.317564706349
 20
1696.424949925693
 30
272.3935238164062
 11
982.4934683199899
 21
1669.992970597288
 31
272.3935238164072
  0
DIMENSION
  5
6B0
330
1F
100
AcDbEntity
  8
AM_5
100
AcDbDimension
  2
*D22
 10
2414.31344671727
 20
1138.26359276484
 30
0.0
 11
1614.313446717268
 21
1170.76359276484
 31
0.0
 70
    32
  1
<>0
 71
     5
 42
160.0000000000002
  3
ROPOX
100
AcDbAlignedDimension
 13
814.3134467172677
 23
794.4929705973145
 33
0.0
 14
2414.31344671727
 24
794.4929705972781
 34
0.0
 50
180.0
100
AcDbRotatedDimension
1001
GENIUS_GENDTOL_13
1000

1000
h7
1000

1040
0.0
1001
ACAD
1000
DSTYLE
1002
{
1070
   144
1040
0.1
1002
}
  0
DIMENSION
  5
6B1
330
1F
100
AcDbEntity
  8
MAAL
  6
Continuous
100
AcDbDimension
  2
*D23
 10
3139.938916253794
 20
1866.589573722696
 30
0.0
 11
3070.188916253796
 21
1899.089573722696
 31
0.0
 70
    32
  1
150
 71
     5
 42
13.94999999999964
  3
ROPOX
100
AcDbAlignedDimension
 13
3000.438916253797
 23
1972.766192822885
 33
272.3935238164262
 14
3139.938916253794
 24
1992.766192822849
 34
272.3935238164473
100
AcDbRotatedDimension
1001
ACAD
1000
DSTYLE
1002
{
1070
   144
1040
0.1
1002
}
  0
ENDSEC
  0
SECTION
  2
OBJECTS
  0
DICTIONARY
  5
C
330
0
100
AcDbDictionary
281
     1
  3
ACAD_COLOR
350
BE
  3
ACAD_GROUP
350
D
  3
ACAD_LAYOUT
350
1A
  3
ACAD_MATERIAL
350
BD
  3
ACAD_MLINESTYLE
350
17
  3
ACAD_PLOTSETTINGS
350
19
  3
ACAD_PLOTSTYLENAME
350
E
  3
ACAD_TABLESTYLE
350
11A
  3
ACDBHEADERROUNDTRIPXREC
350
84C
  3
AcDbVariableDictionary
350
94
  3
AcmDictionary
350
5B
  3
AMG
350
41
  3
AMGSNAPSETTINGS
350
503
  3
DWGPROPS
350
84B
  0
DICTIONARY
  5
8F
330
1F
100
AcDbDictionary
280
     1
281
     1
  0
DICTIONARY
  5
BE
102
{ACAD_REACTORS
330
C
102
}
330
C
100
AcDbDictionary
281
     1
  0
DICTIONARY
  5
D
102
{ACAD_REACTORS
330
C
102
}
330
C
100
AcDbDictionary
281
     1
  0
DICTIONARY
  5
1A
102
{ACAD_REACTORS
330
C
102
}
330
C
100
AcDbDictionary
281
     1
  3
Layout1
350
1E
  3
Layout2
350
26
  3
Model
350
22
  0
DICTIONARY
  5
BD
102
{ACAD_REACTORS
330
C
102
}
330
C
100
AcDbDictionary
281
     1
  0
DICTIONARY
  5
17
102
{ACAD_REACTORS
330
C
102
}
330
C
100
AcDbDictionary
281
     1
  3
Standard
350
18
  0
DICTIONARY
  5
19
102
{ACAD_REACTORS
330
C
102
}
330
C
100
AcDbDictionary
281
     1
  0
ACDBDICTIONARYWDFLT
  5
E
102
{ACAD_REACTORS
330
C
102
}
330
C
100
AcDbDictionary
281
     1
  3
Normal
350
F
100
AcDbDictionaryWithDefault
340
F
  0
DICTIONARY
  5
11A
102
{ACAD_REACTORS
330
C
102
}
330
C
100
AcDbDictionary
281
     1
  3
Standard
350
11B
  0
DICTIONARY
  5
84C
102
{ACAD_REACTORS
330
C
102
}
330
C
100
AcDbDictionary
281
     1
  0
DICTIONARY
  5
94
102
{ACAD_REACTORS
330
C
102
}
330
C
100
AcDbDictionary
281
     1
  3
CTABLESTYLE
350
138
  3
DIMASSOC
350
96
  3
INDEXCTL
350
95
  3
PROJECTNAME
350
849
  0
DICTIONARY
  5
5B
102
{ACAD_REACTORS
330
C
102
}
330
C
100
AcDbDictionary
281
     1
  3
AcmStdDictionary
350
61
  3
AMDTSECTSYM_ARROWCOLOR
350
123
  0
DICTIONARY
  5
41
102
{ACAD_REACTORS
330
C
102
}
330
C
100
AcDbDictionary
281
     1
  0
DICTIONARY
  5
503
102
{ACAD_REACTORS
330
C
102
}
330
C
100
AcDbDictionary
281
     1
  0
XRECORD
  5
84B
102
{ACAD_REACTORS
330
C
102
}
330
C
100
AcDbXrecord
280
     1
  1
DWGPROPS COOKIE
  2

  3

  4

  6

  7

  8

  9

300
AmdtFileType=84
301
=
302
=
303
=
304
=
305
=
306
=
307
=
308
=
309
=
 40
0.0012402314814815
 41
2453615.372808704
 42
2453616.558610833
  1

 90
        1
  0
LAYOUT
  5
1E
102
{ACAD_XDICTIONARY
360
84D
102
}
102
{ACAD_REACTORS
330
1A
102
}
330
1A
100
AcDbPlotSettings
  1

  2

  4

  6

 40
0.0
 41
0.0
 42
0.0
 43
0.0
 44
0.0
 45
0.0
 46
0.0
 47
0.0
 48
0.0
 49
0.0
140
0.0
141
0.0
142
1.0
143
1.0
 70
   688
 72
     0
 73
     0
 74
     5
  7

 75
    16
147
1.0
148
0.0
149
0.0
100
AcDbLayout
  1
Layout1
 70
     1
 71
     1
 10
0.0
 20
0.0
 11
420.0
 21
297.0
 12
0.0
 22
0.0
 32
0.0
 14
1.000000000000000E+20
 24
1.000000000000000E+20
 34
1.000000000000000E+20
 15
-1.000000000000000E+20
 25
-1.000000000000000E+20
 35
-1.000000000000000E+20
146
0.0
 13
0.0
 23
0.0
 33
0.0
 16
1.0
 26
0.0
 36
0.0
 17
0.0
 27
1.0
 37
0.0
 76
     0
330
1B
  0
LAYOUT
  5
26
102
{ACAD_XDICTIONARY
360
851
102
}
102
{ACAD_REACTORS
330
1A
102
}
330
1A
100
AcDbPlotSettings
  1

  2

  4

  6

 40
0.0
 41
0.0
 42
0.0
 43
0.0
 44
0.0
 45
0.0
 46
0.0
 47
0.0
 48
0.0
 49
0.0
140
0.0
141
0.0
142
1.0
143
1.0
 70
   688
 72
     0
 73
     0
 74
     5
  7

 75
    16
147
1.0
148
0.0
149
0.0
100
AcDbLayout
  1
Layout2
 70
     1
 71
     2
 10
0.0
 20
0.0
 11
12.0
 21
9.0
 12
0.0
 22
0.0
 32
0.0
 14
0.0
 24
0.0
 34
0.0
 15
0.0
 25
0.0
 35
0.0
146
0.0
 13
0.0
 23
0.0
 33
0.0
 16
1.0
 26
0.0
 36
0.0
 17
0.0
 27
1.0
 37
0.0
 76
     0
330
23
  0
LAYOUT
  5
22
102
{ACAD_XDICTIONARY
360
84F
102
}
102
{ACAD_REACTORS
330
1A
102
}
330
1A
100
AcDbPlotSettings
  1

  2

  4

  6

 40
0.0
 41
0.0
 42
0.0
 43
0.0
 44
0.0
 45
0.0
 46
0.0
 47
0.0
 48
0.0
 49
0.0
140
0.0
141
0.0
142
1.0
143
1.0
 70
  1712
 72
     0
 73
     0
 74
     0
  7

 75
     0
147
1.0
148
0.0
149
0.0
100
AcDbLayout
  1
Model
 70
     1
 71
     0
 10
0.0
 20
0.0
 11
12.0
 21
9.0
 12
0.0
 22
0.0
 32
0.0
 14
0.0
 24
0.0
 34
0.0
 15
0.0
 25
0.0
 35
0.0
146
0.0
 13
0.0
 23
0.0
 33
0.0
 16
1.0
 26
0.0
 36
0.0
 17
0.0
 27
1.0
 37
0.0
 76
     0
330
1F
  0
MLINESTYLE
  5
18
102
{ACAD_REACTORS
330
17
102
}
330
17
100
AcDbMlineStyle
  2
STANDARD
 70
     0
  3

 62
   256
 51
90.0
 52
90.0
 71
     2
 49
0.5
 62
   256
  6
BYLAYER
 49
-0.5
 62
   256
  6
BYLAYER
  0
ACDBPLACEHOLDER
  5
F
102
{ACAD_REACTORS
330
E
102
}
330
E
  0
TABLESTYLE
  5
11B
102
{ACAD_REACTORS
330
11A
102
}
330
11A
100
AcDbTableStyle
  3
Standard
 70
     0
 71
     0
 40
1.5
 41
1.5
280
     0
281
     0
  7
STANDARD
140
4.5
170
     2
 62
     0
 63
     7
283
     0
274
    -2
284
     1
 64
     0
275
    -2
285
     1
 65
     0
276
    -2
286
     1
 66
     0
277
    -2
287
     1
 67
     0
278
    -2
288
     1
 68
     0
279
    -2
289
     1
 69
     0
  7
STANDARD
140
6.0
170
     5
 62
     0
 63
     7
283
     0
274
    -2
284
     1
 64
     0
275
    -2
285
     1
 65
     0
276
    -2
286
     1
 66
     0
277
    -2
287
     1
 67
     0
278
    -2
288
     1
 68
     0
279
    -2
289
     1
 69
     0
  7
STANDARD
140
4.5
170
     5
 62
     0
 63
     7
283
     0
274
    -2
284
     1
 64
     0
275
    -2
285
     1
 65
     0
276
    -2
286
     1
 66
     0
277
    -2
287
     1
 67
     0
278
    -2
288
     1
 68
     0
279
    -2
289
     1
 69
     0
  0
DICTIONARYVAR
  5
138
102
{ACAD_REACTORS
330
94
102
}
330
94
100
DictionaryVariables
280
     0
  1
STANDARD
  0
DICTIONARYVAR
  5
96
102
{ACAD_REACTORS
330
94
102
}
330
94
100
DictionaryVariables
280
     0
  1
2
  0
DICTIONARYVAR
  5
95
102
{ACAD_REACTORS
330
94
102
}
330
94
100
DictionaryVariables
280
     0
  1
0
  0
DICTIONARYVAR
  5
849
102
{ACAD_REACTORS
330
94
102
}
330
94
100
DictionaryVariables
280
     0
  1

  0
DICTIONARY
  5
61
102
{ACAD_REACTORS
330
5B
102
}
330
5B
100
AcDbDictionary
281
     1
  0
XRECORD
  5
123
102
{ACAD_REACTORS
330
5B
102
}
330
5B
100
AcDbXrecord
280
     1
 90
-1023410169
  0
DICTIONARY
  5
84D
330
1E
100
AcDbDictionary
280
     1
281
     1
  3
ACAD_XREC_ROUNDTRIP
360
84E
  0
DICTIONARY
  5
851
330
26
100
AcDbDictionary
280
     1
281
     1
  3
ACAD_XREC_ROUNDTRIP
360
852
  0
DICTIONARY
  5
84F
330
22
100
AcDbDictionary
280
     1
281
     1
  3
ACAD_XREC_ROUNDTRIP
360
850
  0
XRECORD
  5
84E
102
{ACAD_REACTORS
330
84D
102
}
330
84D
100
AcDbXrecord
280
     1
102
SHADEPLOT
 70
     0
102
SHADEPLOTRESLEVEL
 70
     2
102
SHADEPLOTCUSTOMDPI
 70
   300
  0
XRECORD
  5
852
102
{ACAD_REACTORS
330
851
102
}
330
851
100
AcDbXrecord
280
     1
102
SHADEPLOT
 70
     0
102
SHADEPLOTRESLEVEL
 70
     2
102
SHADEPLOTCUSTOMDPI
 70
   300
  0
XRECORD
  5
850
102
{ACAD_REACTORS
330
84F
102
}
330
84F
100
AcDbXrecord
280
     1
102
SHADEPLOT
 70
     0
102
SHADEPLOTRESLEVEL
 70
     2
102
SHADEPLOTCUSTOMDPI
 70
   300
  0
ENDSEC
  0
EOF
